Вы используете незарегистрированную версию компонента "Вкладки"!

Поиск

(Avant-Garde, Free Jazz) John Zorn - Nosferatu {Tzadik 7397, USA} - 2012, FLAC (tracks+.cue) lossless

Треклист:
John Zorn - Nosferatu
Жанр: Avant-Garde, Free Jazz
Страна-производитель диска: USA
Год издания диска: 2012
Издатель (лейбл): Tzadik (Archival Series)
Номер по каталогу: TZ 7397
Аудио кодек: FLAC (*.flac)
Тип рипа: tracks+.cue
Битрейт аудио: lossless
Продолжительность: 01:01:12
Источник (релизер): dnoz (sddd)
Наличие сканов в содержимом раздачи: нет
Треклист:
01. Desolate Landscape
02. Mina
03. The Battle of Good and Evil
04. Sinistera
05. Van Helsing
06. Fatal Sunrise
07. Hypnosis
08. Lucy
09. Nosferatu
10. The Stalking
11. The Undead
12. Death Ship
13. Jonathan Harker
14. Vampires at Large
15. Renfield
16. Stalker Dub
Personnel:
Rob Burger - Piano, Organ
Bill Laswell - Bass
Kevin Norton - Vibraphone, Drums, Orchestral Bells, Tibetan Prayer Bowls
John Zohn - Piano, Alto Sax, Fender Rhodes, Electronics, Breath
 
Лог создания рипа (EAC Log)
Exact Audio Copy V1.0 beta 3 from 29. August 2011
EAC extraction logfile from 27. May 2012, 21:39
John Zorn / Nosferatu
Used drive : _NEC DVD_RW ND-3540A Adapter: 2 ID: 0
Read mode : Secure
Utilize accurate stream : Yes
Defeat audio cache : Yes
Make use of C2 pointers : No
Read offset correction : 48
Overread into Lead-In and Lead-Out : No
Fill up missing offset samples with silence : Yes
Delete leading and trailing silent blocks : No
Null samples used in CRC calculations : Yes
Used interface : Native Win32 interface for Win NT & 2000
Gap handling : Appended to previous track
Used output format : User Defined Encoder
Selected bitrate : 1024 kBit/s
Quality : High
Add ID3 tag : No
Command line compressor : C:\Program Files\Exact Audio Copy\Flac\flac.exe
Additional command line options : -8 -V -T "ARTIST=%artist%" -T "TITLE=%title%" -T "ALBUM=%albumtitle%" -T "DATE=%year%" -T "TRACKNUMBER=%tracknr%" -T "GENRE=%genre%" -T "PERFORMER=%albuminterpret%" -T "COMPOSER=%composer%" %haslyrics%--tag-from-file=LYRICS="%lyricsfile%"%haslyrics% -T "ALBUMARTIST=%albumartist%" -T "DISCNUMBER=%cdnumber%" -T "TOTALDISCS=%totalcds%" -T "TOTALTRACKS=%numtracks%" -T "COMMENT=%comment%" %source% -o %dest%
TOC of the extracted CD
Track | Start | Length | Start sector | End sector
---------------------------------------------------------
1 | 0:00.00 | 4:33.00 | 0 | 20474
2 | 4:33.00 | 3:35.47 | 20475 | 36646
3 | 8:08.47 | 5:14.22 | 36647 | 60218
4 | 13:22.69 | 3:22.47 | 60219 | 75415
5 | 16:45.41 | 3:25.61 | 75416 | 90851
6 | 20:11.27 | 3:17.52 | 90852 | 105678
7 | 23:29.04 | 2:10.59 | 105679 | 115487
8 | 25:39.63 | 2:46.23 | 115488 | 127960
9 | 28:26.11 | 2:27.43 | 127961 | 139028
10 | 30:53.54 | 7:33.55 | 139029 | 173058
11 | 38:27.34 | 4:00.33 | 173059 | 191091
12 | 42:27.67 | 2:00.31 | 191092 | 200122
13 | 44:28.23 | 5:29.34 | 200123 | 224831
14 | 49:57.57 | 4:17.57 | 224832 | 244163
15 | 54:15.39 | 3:31.71 | 244164 | 260059
16 | 57:47.35 | 3:24.67 | 260060 | 275426
Track 1
Filename C:\Program Files\Secure Rips\John Zorn - 2012 - Nosferatu\01 - Desolate Landscape.wav
Pre-gap length 0:00:02.00
Peak level 96.6 %
Extraction speed 1.1 X
Track quality 100.0 %
Test CRC ED9DBDC0
Copy CRC ED9DBDC0
Track not present in AccurateRip database
Copy OK
Track 2
Filename C:\Program Files\Secure Rips\John Zorn - 2012 - Nosferatu\02 - Mina.wav
Peak level 96.6 %
Extraction speed 1.2 X
Track quality 100.0 %
Test CRC 2301AE38
Copy CRC 2301AE38
Track not present in AccurateRip database
Copy OK
Track 3
Filename C:\Program Files\Secure Rips\John Zorn - 2012 - Nosferatu\03 - The Battle of Good and Evil.wav
Peak level 96.6 %
Extraction speed 1.4 X
Track quality 100.0 %
Test CRC 3EF5633B
Copy CRC 3EF5633B
Track not present in AccurateRip database
Copy OK
Track 4
Filename C:\Program Files\Secure Rips\John Zorn - 2012 - Nosferatu\04 - Sinistera.wav
Peak level 84.9 %
Extraction speed 1.5 X
Track quality 100.0 %
Test CRC 30B33DB1
Copy CRC 30B33DB1
Track not present in AccurateRip database
Copy OK
Track 5
Filename C:\Program Files\Secure Rips\John Zorn - 2012 - Nosferatu\05 - Van Helsing.wav
Peak level 59.9 %
Extraction speed 1.3 X
Track quality 99.9 %
Test CRC 36E2AA7A
Copy CRC 36E2AA7A
Track not present in AccurateRip database
Copy OK
Track 6
Filename C:\Program Files\Secure Rips\John Zorn - 2012 - Nosferatu\06 - Fatal Sunrise.wav
Peak level 96.6 %
Extraction speed 1.6 X
Track quality 100.0 %
Test CRC 3B8A9749
Copy CRC 3B8A9749
Track not present in AccurateRip database
Copy OK
Track 7
Filename C:\Program Files\Secure Rips\John Zorn - 2012 - Nosferatu\07 - Hypnosis.wav
Peak level 58.8 %
Extraction speed 1.3 X
Track quality 99.9 %
Test CRC AC8F51A0
Copy CRC AC8F51A0
Track not present in AccurateRip database
Copy OK
Track 8
Filename C:\Program Files\Secure Rips\John Zorn - 2012 - Nosferatu\08 - Lucy.wav
Peak level 86.4 %
Extraction speed 1.4 X
Track quality 99.9 %
Test CRC 979B077A
Copy CRC 979B077A
Track not present in AccurateRip database
Copy OK
Track 9
Filename C:\Program Files\Secure Rips\John Zorn - 2012 - Nosferatu\09 - Nosferatu.wav
Peak level 62.1 %
Extraction speed 1.7 X
Track quality 100.0 %
Test CRC 488F5D3A
Copy CRC 488F5D3A
Track not present in AccurateRip database
Copy OK
Track 10
Filename C:\Program Files\Secure Rips\John Zorn - 2012 - Nosferatu\10 - The Stalking.wav
Peak level 90.8 %
Extraction speed 2.1 X
Track quality 100.0 %
Test CRC 0EC021B4
Copy CRC 0EC021B4
Track not present in AccurateRip database
Copy OK
Track 11
Filename C:\Program Files\Secure Rips\John Zorn - 2012 - Nosferatu\11 - The Undead.wav
Peak level 85.4 %
Extraction speed 2.0 X
Track quality 100.0 %
Test CRC 30C94A36
Copy CRC 30C94A36
Track not present in AccurateRip database
Copy OK
Track 12
Filename C:\Program Files\Secure Rips\John Zorn - 2012 - Nosferatu\12 - Death Ship.wav
Peak level 96.6 %
Extraction speed 1.8 X
Track quality 100.0 %
Test CRC 2F95CC2B
Copy CRC 2F95CC2B
Track not present in AccurateRip database
Copy OK
Track 13
Filename C:\Program Files\Secure Rips\John Zorn - 2012 - Nosferatu\13 - Jonathan Harker.wav
Peak level 96.6 %
Extraction speed 2.2 X
Track quality 100.0 %
Test CRC 4AA8EA56
Copy CRC 4AA8EA56
Track not present in AccurateRip database
Copy OK
Track 14
Filename C:\Program Files\Secure Rips\John Zorn - 2012 - Nosferatu\14 - Vampires at Large.wav
Peak level 97.7 %
Extraction speed 0.4 X
Track quality 99.0 %
Test CRC 16F45ACE
Copy CRC 16F45ACE
Track not present in AccurateRip database
Copy OK
Track 15
Filename C:\Program Files\Secure Rips\John Zorn - 2012 - Nosferatu\15 - Renfield.wav
Peak level 96.6 %
Extraction speed 2.3 X
Track quality 100.0 %
Test CRC F1B433A9
Copy CRC F1B433A9
Track not present in AccurateRip database
Copy OK
Track 16
Filename C:\Program Files\Secure Rips\John Zorn - 2012 - Nosferatu\16 - Stalker Dub.wav
Peak level 96.6 %
Extraction speed 2.3 X
Track quality 100.0 %
Test CRC E0B56F70
Copy CRC E0B56F70
Track not present in AccurateRip database
Copy OK
None of the tracks are present in the AccurateRip database
No errors occurred
End of status report
==== Log checksum 37DF4D604C41D62879D0CEA687E34DE618D5D8F2B179FEB7BC05AA6662AF2717 ====
 
Содержание индексной карты (.CUE)
REM GENRE Avantgarde
REM DATE 2012
REM DISCID E20E5810
REM COMMENT "ExactAudioCopy v1.0b3"
FILE "01 - Desolate Landscape.wav" WAVE
TRACK 01 AUDIO
INDEX 01 00:00:00
FILE "02 - Mina.wav" WAVE
TRACK 02 AUDIO
INDEX 01 00:00:00
FILE "03 - The Battle of Good and Evil.wav" WAVE
TRACK 03 AUDIO
INDEX 01 00:00:00
FILE "04 - Sinistera.wav" WAVE
TRACK 04 AUDIO
INDEX 01 00:00:00
FILE "05 - Van Helsing.wav" WAVE
TRACK 05 AUDIO
INDEX 01 00:00:00
FILE "06 - Fatal Sunrise.wav" WAVE
TRACK 06 AUDIO
INDEX 01 00:00:00
FILE "07 - Hypnosis.wav" WAVE
TRACK 07 AUDIO
INDEX 01 00:00:00
FILE "08 - Lucy.wav" WAVE
TRACK 08 AUDIO
INDEX 01 00:00:00
FILE "09 - Nosferatu.wav" WAVE
TRACK 09 AUDIO
INDEX 01 00:00:00
FILE "10 - The Stalking.wav" WAVE
TRACK 10 AUDIO
INDEX 01 00:00:00
FILE "11 - The Undead.wav" WAVE
TRACK 11 AUDIO
INDEX 01 00:00:00
FILE "12 - Death Ship.wav" WAVE
TRACK 12 AUDIO
INDEX 01 00:00:00
FILE "13 - Jonathan Harker.wav" WAVE
TRACK 13 AUDIO
INDEX 01 00:00:00
FILE "14 - Vampires at Large.wav" WAVE
TRACK 14 AUDIO
INDEX 01 00:00:00
FILE "15 - Renfield.wav" WAVE
TRACK 15 AUDIO
INDEX 01 00:00:00
FILE "16 - Stalker Dub.wav" WAVE
TRACK 16 AUDIO
INDEX 01 00:00:00
 
Tzadik
Created for a modern Polish stage production of Bram Stoker’s classic vampire tale, Zorn has created a music filled with nostalgia, tenderness, violent power and a great sense of mystery. Featuring the dark ambient bass tones of Bill Laswell, the sensitive keyboards of Rob Burger, Kevin Norton on drums, vibes and percussion and Zorn on sax, this is a moody and menacing program of music for late night listening. Romantic ballads, ambient soundscapes and hardcore intensity! RELEASED ON THE 100TH ANNIVERSARY OF BRAM STOKER’S DEATH—APRIL 20, 1912.
Any questions -> support@pro-jazz.com. По всем вопросам пишите -> support@pro-jazz.com
01:40
113
Нет комментариев. Ваш будет первым!