Вы используете незарегистрированную версию компонента "Вкладки"!

Поиск

(Avant-Garde Jazz/Free Imrovisation) Reed Trio (Ken Vandermark, Mikolaj Trzaska, Waclaw Zimpel) - Last Train to the First Station - 2011, FLAC (tracks+.cue), lossless

Треклист:
Reed Trio (Ken Vandermark, Mikolaj Trzaska, Waclaw Zimpel) - Last Train to the First Station
Жанр: Avant-Garde Jazz/Free Imrovisation
Страна-производитель диска: Польша
Год издания: 2011
Издатель (лейбл): Kilogram Records
Номер по каталогу: 1KG020
Страна: Польша
Аудиокодек: FLAC (*.flac)
Тип рипа: tracks+.cue
Битрейт аудио: lossless
Продолжительность: 53:41
Источник (релизер): Собственный CD
Наличие сканов в содержимом раздачи: да
Треклист:
01. When Tulips Were Gold
02. In Between Chairs
03. Siting on Warm Stone
04. Crossroads And Cosmic Ray
05. Anthology Moves
06. Two Man Talk Trough a Window
07. The Distance That Becomes You
08. Bed of Brass
09. It's here and it's gone
10. All The Glasses Were Upside Down
11. The Wasted Sea

 
Лог создания рипа
Exact Audio Copy V1.0 beta 3 from 29. August 2011
EAC extraction logfile from 29. October 2011, 22:42
Reed Trio / Last Train To The First Station
Used drive : Optiarc DVD RW AD-5200A Adapter: 0 ID: 0
Read mode : Secure
Utilize accurate stream : Yes
Defeat audio cache : Yes
Make use of C2 pointers : No
Read offset correction : 48
Overread into Lead-In and Lead-Out : No
Fill up missing offset samples with silence : Yes
Delete leading and trailing silent blocks : No
Null samples used in CRC calculations : Yes
Used interface : Native Win32 interface for Win NT & 2000
Gap handling : Appended to previous track
Used output format : User Defined Encoder
Selected bitrate : 128 kBit/s
Quality : High
Add ID3 tag : No
Command line compressor : C:\Program Files (x86)\Exact Audio Copy\Flac\flac.exe
Additional command line options : -V -8 -T "Genre=%genre%" -T "Artist=%artist%" -T "Title=%title%" -T "Album=%albumtitle%" -T "Date=%year%" -T "Tracknumber=%tracknr%" -T "Comment=%comment%" %source%
TOC of the extracted CD
Track | Start | Length | Start sector | End sector
---------------------------------------------------------
1 | 0:00.00 | 5:03.18 | 0 | 22742
2 | 5:03.18 | 4:38.70 | 22743 | 43662
3 | 9:42.13 | 4:57.27 | 43663 | 65964
4 | 14:39.40 | 4:36.63 | 65965 | 86727
5 | 19:16.28 | 4:21.57 | 86728 | 106359
6 | 23:38.10 | 3:50.53 | 106360 | 123662
7 | 27:28.63 | 5:17.48 | 123663 | 147485
8 | 32:46.36 | 4:46.67 | 147486 | 169002
9 | 37:33.28 | 8:24.02 | 169003 | 206804
10 | 45:57.30 | 3:50.65 | 206805 | 224119
11 | 49:48.20 | 3:50.65 | 224120 | 241434
Track 1
Filename D:\MUSIC\Avant-garde\Vaslav Zimpel\Reed Trio - Last Train To The First Station (2010)\01 - When Tulips Were Gold.wav
Pre-gap length 0:00:02.00
Peak level 99.5 %
Extraction speed 2.5 X
Track quality 100.0 %
Test CRC D5E3C3BA
Copy CRC D5E3C3BA
Track not present in AccurateRip database
Copy OK
Track 2
Filename D:\MUSIC\Avant-garde\Vaslav Zimpel\Reed Trio - Last Train To The First Station (2010)\02 - In Between Chairs.wav
Peak level 82.4 %
Extraction speed 2.8 X
Track quality 100.0 %
Test CRC E70D4926
Copy CRC E70D4926
Track not present in AccurateRip database
Copy OK
Track 3
Filename D:\MUSIC\Avant-garde\Vaslav Zimpel\Reed Trio - Last Train To The First Station (2010)\03 - Sitting On A Warm Stone.wav
Peak level 99.5 %
Extraction speed 3.1 X
Track quality 100.0 %
Test CRC C7446350
Copy CRC C7446350
Track not present in AccurateRip database
Copy OK
Track 4
Filename D:\MUSIC\Avant-garde\Vaslav Zimpel\Reed Trio - Last Train To The First Station (2010)\04 - Crossroads And A Cosmic Ray.wav
Peak level 56.9 %
Extraction speed 3.3 X
Track quality 100.0 %
Test CRC 4522CF64
Copy CRC 4522CF64
Track not present in AccurateRip database
Copy OK
Track 5
Filename D:\MUSIC\Avant-garde\Vaslav Zimpel\Reed Trio - Last Train To The First Station (2010)\05 - Anthology Moves.wav
Peak level 99.5 %
Extraction speed 3.5 X
Track quality 100.0 %
Test CRC 6FAA72C0
Copy CRC 6FAA72C0
Track not present in AccurateRip database
Copy OK
Track 6
Filename D:\MUSIC\Avant-garde\Vaslav Zimpel\Reed Trio - Last Train To The First Station (2010)\06 - Two Men Talking Through A Window.wav
Peak level 94.3 %
Extraction speed 3.2 X
Track quality 99.9 %
Test CRC 3FCEC41D
Copy CRC 3FCEC41D
Track not present in AccurateRip database
Copy OK
Track 7
Filename D:\MUSIC\Avant-garde\Vaslav Zimpel\Reed Trio - Last Train To The First Station (2010)\07 - The Distance That Becomes You.wav
Peak level 99.5 %
Extraction speed 4.0 X
Track quality 100.0 %
Test CRC 84DFA0EB
Copy CRC 84DFA0EB
Track not present in AccurateRip database
Copy OK
Track 8
Filename D:\MUSIC\Avant-garde\Vaslav Zimpel\Reed Trio - Last Train To The First Station (2010)\08 - Bed Of Brass.wav
Peak level 99.5 %
Extraction speed 4.2 X
Track quality 100.0 %
Test CRC ADEFFD34
Copy CRC ADEFFD34
Track not present in AccurateRip database
Copy OK
Track 9
Filename D:\MUSIC\Avant-garde\Vaslav Zimpel\Reed Trio - Last Train To The First Station (2010)\09 - It's Here And It's Gone.wav
Peak level 55.5 %
Extraction speed 4.7 X
Track quality 100.0 %
Test CRC 3E20DE80
Copy CRC 3E20DE80
Track not present in AccurateRip database
Copy OK
Track 10
Filename D:\MUSIC\Avant-garde\Vaslav Zimpel\Reed Trio - Last Train To The First Station (2010)\10 - All The Glasses Were Upside Down.wav
Peak level 79.5 %
Extraction speed 4.6 X
Track quality 100.0 %
Test CRC 58210252
Copy CRC 58210252
Track not present in AccurateRip database
Copy OK
Track 11
Filename D:\MUSIC\Avant-garde\Vaslav Zimpel\Reed Trio - Last Train To The First Station (2010)\11 - The Wasted Sea.wav
Peak level 93.9 %
Extraction speed 4.7 X
Track quality 100.0 %
Test CRC 466BAD08
Copy CRC 466BAD08
Track not present in AccurateRip database
Copy OK
None of the tracks are present in the AccurateRip database
No errors occurred
End of status report
==== Log checksum 666EAA66E22BEDA0146078EA73AEA95251C45480FE0FDB578ED0BF8D60AEF20D ====
 
Содержание индексной карты (.CUE)
REM GENRE "Free Jazz"
REM DATE 2010
REM DISCID 9F0C930B
REM COMMENT "ExactAudioCopy v1.0b3"
PERFORMER "Reed Trio"
TITLE "Last Train To The First Station"
FILE "01 - When Tulips Were Gold.wav" WAVE
TRACK 01 AUDIO
TITLE "When Tulips Were Gold"
PERFORMER "Reed Trio"
INDEX 01 00:00:00
FILE "02 - In Between Chairs.wav" WAVE
TRACK 02 AUDIO
TITLE "In Between Chairs"
PERFORMER "Reed Trio"
INDEX 01 00:00:00
FILE "03 - Sitting On A Warm Stone.wav" WAVE
TRACK 03 AUDIO
TITLE "Sitting On A Warm Stone"
PERFORMER "Reed Trio"
INDEX 01 00:00:00
FILE "04 - Crossroads And A Cosmic Ray.wav" WAVE
TRACK 04 AUDIO
TITLE "Crossroads And A Cosmic Ray"
PERFORMER "Reed Trio"
INDEX 01 00:00:00
FILE "05 - Anthology Moves.wav" WAVE
TRACK 05 AUDIO
TITLE "Anthology Moves"
PERFORMER "Reed Trio"
INDEX 01 00:00:00
FILE "06 - Two Men Talking Through A Window.wav" WAVE
TRACK 06 AUDIO
TITLE "Two Men Talking Through A Window"
PERFORMER "Reed Trio"
INDEX 01 00:00:00
FILE "07 - The Distance That Becomes You.wav" WAVE
TRACK 07 AUDIO
TITLE "The Distance That Becomes You"
PERFORMER "Reed Trio"
INDEX 01 00:00:00
FILE "08 - Bed Of Brass.wav" WAVE
TRACK 08 AUDIO
TITLE "Bed Of Brass"
PERFORMER "Reed Trio"
INDEX 01 00:00:00
FILE "09 - It's Here And It's Gone.wav" WAVE
TRACK 09 AUDIO
TITLE "It's Here And It's Gone"
PERFORMER "Reed Trio"
INDEX 01 00:00:00
FILE "10 - All The Glasses Were Upside Down.wav" WAVE
TRACK 10 AUDIO
TITLE "All The Glasses Were Upside Down"
PERFORMER "Reed Trio"
INDEX 01 00:00:00
FILE "11 - The Wasted Sea.wav" WAVE
TRACK 11 AUDIO
TITLE "The Wasted Sea"
PERFORMER "Reed Trio"
INDEX 01 00:00:00
Доп. информация: Запись концерта в Новой Синагоге в Гданьске 27 апреля 2010 года.
 
Состав
Ken Vandermark: clarinet, tenor saxophone, baritone saxophone
Mikołaj Trzaska: bass clarinet, alto saxophone, c-melody saxophone
Wacław Zimpel: clarinet, bass clarinet, tarogato
По всем вопросам пишите личное сообщение пользователю M0p94ok.
01:40
110
Нет комментариев. Ваш будет первым!