Вы используете незарегистрированную версию компонента "Вкладки"!

Поиск

(Free Improvisation) Tatsuya Nakatani - Abiogenesis - 2010, FLAC (tracks+.cue), lossless

(Free Improvisation) Tatsuya Nakatani - Abiogenesis - 2010, FLAC (tracks+.cue), lossless
Треклист:
Tatsuya Nakatani / Abiogenesis
Жанр: Free Improvisation
Страна-производитель диска: США
Год издания: 2010
Издатель (лейбл): H&H PRODUCTION
Номер по каталогу: HH-9
Страна: США
Аудиокодек: FLAC (*.flac)
Тип рипа: tracks+.cue
Битрейт аудио: lossless
Продолжительность: 47:29
Источник (релизер): вот.сиди (echolocomotion)
Наличие сканов в содержимом раздачи: нет
Треклист:
1. - 15. untitled
Recorded September 2009 at H&H studio, Easton PA
 
Лог создания рипа
Exact Audio Copy V1.0 beta 3 from 29. August 2011
EAC extraction logfile from 8. June 2012, 23:27
Tatsuya Nakatani / Abiogenesis
Used drive : hp DVD RW AD-7701H Adapter: 1 ID: 0
Read mode : Secure
Utilize accurate stream : Yes
Defeat audio cache : Yes
Make use of C2 pointers : No
Read offset correction : 48
Overread into Lead-In and Lead-Out : No
Fill up missing offset samples with silence : Yes
Delete leading and trailing silent blocks : No
Null samples used in CRC calculations : Yes
Used interface : Native Win32 interface for Win NT & 2000
Gap handling : Appended to previous track
Used output format : User Defined Encoder
Selected bitrate : 128 kBit/s
Quality : High
Add ID3 tag : No
Command line compressor : C:\Program Files\Exact Audio Copy\Flac\flac.exe
Additional command line options : -8 -V -T "ARTIST=%artist%" -T "TITLE=%title%" -T "ALBUM=%albumtitle%" -T "DATE=%year%" -T "TRACKNUMBER=%tracknr%" -T "GENRE=%genre%" -T "PERFORMER=%albuminterpret%" -T "COMPOSER=%composer%" %haslyrics%--tag-from-file=LYRICS="%lyricsfile%"%haslyrics% -T "ALBUMARTIST=%albumartist%" -T "DISCNUMBER=%cdnumber%" -T "TOTALDISCS=%totalcds%" -T "TOTALTRACKS=%numtracks%" -T "COMMENT=%comment%" %source% -o %dest%
TOC of the extracted CD
Track | Start | Length | Start sector | End sector
---------------------------------------------------------
1 | 0:00.00 | 2:13.24 | 0 | 9998
2 | 2:13.24 | 3:29.39 | 9999 | 25712
3 | 5:42.63 | 2:33.37 | 25713 | 37224
4 | 8:16.25 | 1:25.72 | 37225 | 43671
5 | 9:42.22 | 2:02.27 | 43672 | 52848
6 | 11:44.49 | 2:51.54 | 52849 | 65727
7 | 14:36.28 | 5:15.54 | 65728 | 89406
8 | 19:52.07 | 3:05.04 | 89407 | 103285
9 | 22:57.11 | 4:54.41 | 103286 | 125376
10 | 27:51.52 | 2:49.14 | 125377 | 138065
11 | 30:40.66 | 2:29.15 | 138066 | 149255
12 | 33:10.06 | 3:04.58 | 149256 | 163113
13 | 36:14.64 | 5:50.28 | 163114 | 189391
14 | 42:05.17 | 2:45.70 | 189392 | 201836
15 | 44:51.12 | 2:38.00 | 201837 | 213686
Track 1
Filename C:\Program Files\Exact Audio Copy\Flac\01 - Untitled I.wav
Pre-gap length 0:00:02.00
Peak level 98.8 %
Extraction speed 2.5 X
Track quality 100.0 %
Test CRC 897BB47D
Copy CRC 897BB47D
Accurately ripped (confidence 1) [5ED1A317] (AR v1)
Copy OK
Track 2
Filename C:\Program Files\Exact Audio Copy\Flac\02 - Untitled II.wav
Peak level 98.8 %
Extraction speed 2.9 X
Track quality 100.0 %
Test CRC 2A33ADB9
Copy CRC 2A33ADB9
Accurately ripped (confidence 1) [F1163C9E] (AR v1)
Copy OK
Track 3
Filename C:\Program Files\Exact Audio Copy\Flac\03 - Untitled III.wav
Pre-gap length 0:00:01.49
Peak level 98.8 %
Extraction speed 3.0 X
Track quality 100.0 %
Test CRC 44FAB8D9
Copy CRC 44FAB8D9
Accurately ripped (confidence 1) [DF5F0BE4] (AR v1)
Copy OK
Track 4
Filename C:\Program Files\Exact Audio Copy\Flac\04 - Untitled IV.wav
Peak level 98.8 %
Extraction speed 1.9 X
Track quality 99.8 %
Test CRC 61286ECE
Copy CRC 61286ECE
Accurately ripped (confidence 1) [F591F1B9] (AR v1)
Copy OK
Track 5
Filename C:\Program Files\Exact Audio Copy\Flac\05 - Untitled V.wav
Pre-gap length 0:00:02.00
Peak level 98.8 %
Extraction speed 3.0 X
Track quality 100.0 %
Test CRC A2B57E16
Copy CRC A2B57E16
Accurately ripped (confidence 1) [9B82CFCB] (AR v1)
Copy OK
Track 6
Filename C:\Program Files\Exact Audio Copy\Flac\06 - Untitled VI.wav
Pre-gap length 0:00:03.00
Peak level 98.8 %
Extraction speed 3.4 X
Track quality 100.0 %
Test CRC FE59A8A7
Copy CRC FE59A8A7
Accurately ripped (confidence 1) [55482F2A] (AR v1)
Copy OK
Track 7
Filename C:\Program Files\Exact Audio Copy\Flac\07 - Untitled VII.wav
Pre-gap length 0:00:03.00
Peak level 98.8 %
Extraction speed 3.4 X
Track quality 99.9 %
Test CRC 860C0121
Copy CRC 860C0121
Accurately ripped (confidence 1) [A0A8E7BF] (AR v1)
Copy OK
Track 8
Filename C:\Program Files\Exact Audio Copy\Flac\08 - Untitled VIII.wav
Pre-gap length 0:00:03.00
Peak level 98.8 %
Extraction speed 3.9 X
Track quality 100.0 %
Test CRC AD22C400
Copy CRC AD22C400
Accurately ripped (confidence 1) [289BF464] (AR v1)
Copy OK
Track 9
Filename C:\Program Files\Exact Audio Copy\Flac\09 - Untitled IX.wav
Pre-gap length 0:00:04.00
Peak level 98.8 %
Extraction speed 4.3 X
Track quality 100.0 %
Test CRC 3FBA3E03
Copy CRC 3FBA3E03
Accurately ripped (confidence 1) [05193A44] (AR v1)
Copy OK
Track 10
Filename C:\Program Files\Exact Audio Copy\Flac\10 - Untitled X.wav
Pre-gap length 0:00:05.00
Peak level 98.8 %
Extraction speed 4.1 X
Track quality 100.0 %
Test CRC 991E8949
Copy CRC 991E8949
Accurately ripped (confidence 1) [09F52237] (AR v1)
Copy OK
Track 11
Filename C:\Program Files\Exact Audio Copy\Flac\11 - Untitled XI.wav
Peak level 98.8 %
Extraction speed 4.2 X
Track quality 100.0 %
Test CRC 495D4876
Copy CRC 495D4876
Accurately ripped (confidence 1) [F6A16082] (AR v1)
Copy OK
Track 12
Filename C:\Program Files\Exact Audio Copy\Flac\12 - Untitled XII.wav
Peak level 98.8 %
Extraction speed 4.5 X
Track quality 100.0 %
Test CRC E5CB7AD5
Copy CRC E5CB7AD5
Accurately ripped (confidence 1) [4CDD9BC9] (AR v1)
Copy OK
Track 13
Filename C:\Program Files\Exact Audio Copy\Flac\13 - Untitled XIII.wav
Pre-gap length 0:00:02.00
Peak level 98.8 %
Extraction speed 5.0 X
Track quality 100.0 %
Test CRC 9D77EED4
Copy CRC 9D77EED4
Accurately ripped (confidence 1) [64FE32B0] (AR v1)
Copy OK
Track 14
Filename C:\Program Files\Exact Audio Copy\Flac\14 - Untitled XIV.wav
Pre-gap length 0:00:03.00
Peak level 98.8 %
Extraction speed 4.6 X
Track quality 100.0 %
Test CRC F4684131
Copy CRC F4684131
Accurately ripped (confidence 1) [1794E68B] (AR v1)
Copy OK
Track 15
Filename C:\Program Files\Exact Audio Copy\Flac\15 - Untitled XV.wav
Peak level 98.8 %
Extraction speed 4.8 X
Track quality 100.0 %
Test CRC C8FF29FD
Copy CRC C8FF29FD
Accurately ripped (confidence 1) [616DA7CE] (AR v1)
Copy OK
All tracks accurately ripped
No errors occurred
End of status report
---- CUETools DB Plugin V2.1.3
[CTDB TOCID: mt.DFSCvmRToTHZbMqEl2.jy6ck-] found, Submit result: mt.DFSCvmRToTHZbMqEl2.jy6ck- has been confirmed
[220ce665] (2/2) Accurately ripped
==== Log checksum 983B56221C40240A100C6FD910BB894808081BDCBE47768B1B3842AACDAE58C4 ====
 
Содержание индексной карты (.CUE)
REM GENRE Noise
REM DATE 2010
REM DISCID EC0B210F
REM COMMENT "ExactAudioCopy v1.0b3"
PERFORMER "Tatsuya Nakatani"
TITLE "Abiogenesis"
FILE "01 - Untitled I.wav" WAVE
TRACK 01 AUDIO
TITLE "Untitled I"
PERFORMER "Tatsuya Nakatani"
FLAGS DCP
INDEX 01 00:00:00
FILE "02 - Untitled II.wav" WAVE
TRACK 02 AUDIO
TITLE "Untitled II"
PERFORMER "Tatsuya Nakatani"
FLAGS DCP
INDEX 01 00:00:00
TRACK 03 AUDIO
TITLE "Untitled III"
PERFORMER "Tatsuya Nakatani"
FLAGS DCP
INDEX 00 03:28:02
FILE "03 - Untitled III.wav" WAVE
INDEX 01 00:00:00
FILE "04 - Untitled IV.wav" WAVE
TRACK 04 AUDIO
TITLE "Untitled IV"
PERFORMER "Tatsuya Nakatani"
FLAGS DCP
INDEX 01 00:00:00
TRACK 05 AUDIO
TITLE "Untitled V"
PERFORMER "Tatsuya Nakatani"
FLAGS DCP
INDEX 00 01:23:72
FILE "05 - Untitled V.wav" WAVE
INDEX 01 00:00:00
TRACK 06 AUDIO
TITLE "Untitled VI"
PERFORMER "Tatsuya Nakatani"
FLAGS DCP
INDEX 00 01:59:27
FILE "06 - Untitled VI.wav" WAVE
INDEX 01 00:00:00
TRACK 07 AUDIO
TITLE "Untitled VII"
PERFORMER "Tatsuya Nakatani"
FLAGS DCP
INDEX 00 02:48:54
FILE "07 - Untitled VII.wav" WAVE
INDEX 01 00:00:00
TRACK 08 AUDIO
TITLE "Untitled VIII"
PERFORMER "Tatsuya Nakatani"
FLAGS DCP
INDEX 00 05:12:54
FILE "08 - Untitled VIII.wav" WAVE
INDEX 01 00:00:00
TRACK 09 AUDIO
TITLE "Untitled IX"
PERFORMER "Tatsuya Nakatani"
FLAGS DCP
INDEX 00 03:01:04
FILE "09 - Untitled IX.wav" WAVE
INDEX 01 00:00:00
TRACK 10 AUDIO
TITLE "Untitled X"
PERFORMER "Tatsuya Nakatani"
FLAGS DCP
INDEX 00 04:49:41
FILE "10 - Untitled X.wav" WAVE
INDEX 01 00:00:00
FILE "11 - Untitled XI.wav" WAVE
TRACK 11 AUDIO
TITLE "Untitled XI"
PERFORMER "Tatsuya Nakatani"
FLAGS DCP
INDEX 01 00:00:00
FILE "12 - Untitled XII.wav" WAVE
TRACK 12 AUDIO
TITLE "Untitled XII"
PERFORMER "Tatsuya Nakatani"
FLAGS DCP
INDEX 01 00:00:00
TRACK 13 AUDIO
TITLE "Untitled XIII"
PERFORMER "Tatsuya Nakatani"
FLAGS DCP
INDEX 00 03:02:58
FILE "13 - Untitled XIII.wav" WAVE
INDEX 01 00:00:00
TRACK 14 AUDIO
TITLE "Untitled XIV"
PERFORMER "Tatsuya Nakatani"
FLAGS DCP
INDEX 00 05:47:28
FILE "14 - Untitled XIV.wav" WAVE
INDEX 01 00:00:00
FILE "15 - Untitled XV.wav" WAVE
TRACK 15 AUDIO
TITLE "Untitled XV"
PERFORMER "Tatsuya Nakatani"
FLAGS DCP
INDEX 01 00:00:00
 
Лог проверки качества
AUDIOCHECKER v2.0 beta (build 457) - by Dester - opdester@freemail.hu
~~~~~~~~~~~~~~~~~~~~~~~~~~~~~~~~~~
-=== DO NOT EDIT THIS FILE! ===-
Path: ...\Tatsuya Nakatani - Abiogenesis (2010)
01 -=- 01 - Untitled I.flac -=- CDDA (100%)
02 -=- 02 - Untitled II.flac -=- MPEG (93%)
03 -=- 03 - Untitled III.flac -=- CDDA (100%)
04 -=- 04 - Untitled IV.flac -=- CDDA (100%)
05 -=- 05 - Untitled V.flac -=- CDDA (100%)
06 -=- 06 - Untitled VI.flac -=- CDDA (100%)
07 -=- 07 - Untitled VII.flac -=- CDDA (99%)
08 -=- 08 - Untitled VIII.flac -=- CDDA (100%)
09 -=- 09 - Untitled IX.flac -=- CDDA (100%)
10 -=- 10 - Untitled X.flac -=- CDDA (100%)
11 -=- 11 - Untitled XI.flac -=- CDDA (100%)
12 -=- 12 - Untitled XII.flac -=- CDDA (100%)
13 -=- 13 - Untitled XIII.flac -=- CDDA (100%)
14 -=- 14 - Untitled XIV.flac -=- CDDA (100%)
15 -=- 15 - Untitled XV.flac -=- CDDA (99%)
Summary 93,67% CDDA
246571412
 
Состав
Tatsuya Nakatani bowed gong, percussion
Any questions -> support@pro-jazz.com. По всем вопросам пишите -> support@pro-jazz.com
01:41
141
Нет комментариев. Ваш будет первым!