Вы используете незарегистрированную версию компонента "Вкладки"!

Поиск

(Contemporary Jazz, Splasc(H)) [CD] Paolo Damiani Ensemble - Song Tong - 1997, FLAC (tracks+.cue), lossless

(Contemporary Jazz, Splasc(H)) [CD] Paolo Damiani Ensemble - Song Tong - 1997, FLAC (tracks+.cue), lossless
Издатель (лейбл):
Треклист:
Paolo Damiani Ensemble / Song Tong
Жанр: Contemporary Jazz, Splasc(H)
Носитель: CD
Страна-производитель диска: Italy
Год издания: 1997
Издатель (лейбл): Splasc(H) Records
Номер по каталогу: CDH 460.2
Аудиокодек: FLAC (*.flac)
Тип рипа: tracks+.cue
Битрейт аудио: lossless
Продолжительность: 1:13:10
Источник (релизер): я
Наличие сканов в содержимом раздачи: нет
Треклист:
1. Song Tong 11:21
2. In a Whisper 8:01
3. A Little Peace (Kenny Wheeler) 7:51
4. Laula, bailando 13:22
5. Angoli 9:45
6. Senza 4:59
7. Dance for an Only Body 15:02
8. Song Tong 2:49
Music by Paolo Damiani except where indicated.
Recorded at Highland Studios, Milan, in August 1991.
Kenny Wheeler – Flugelhorn, Trumpet
Gianluigi Trovesi – Alto Saxophone, Alto Clarinet
Maurizio Giammarco – Tenor and Soprano Saxophones
Maria Pia De Vito – Vocals
Tiziana Simona Vigni – Vocals on track 3
Jean-Marc Montera – Guitar
Stefano Battaglia – Piano
Paolo Damiani – Bass, Cello
Joël Allouche – Drums
Fulvio Maras – Percussion
 
Лог создания рипа
Exact Audio Copy V1.0 beta 3 from 29. August 2011
EAC extraction logfile from 8. February 2014, 21:26
Paolo Damiani Ensemble / Song Tong
Used drive : SlimtypeeNAU508 5 Adapter: 1 ID: 0
Read mode : Secure
Utilize accurate stream : Yes
Defeat audio cache : Yes
Make use of C2 pointers : No
Read offset correction : 6
Overread into Lead-In and Lead-Out : No
Fill up missing offset samples with silence : Yes
Delete leading and trailing silent blocks : No
Null samples used in CRC calculations : Yes
Used interface : Native Win32 interface for Win NT & 2000
Gap handling : Appended to previous track
Used output format : User Defined Encoder
Selected bitrate : 768 kBit/s
Quality : High
Add ID3 tag : No
Command line compressor : C:\Program Files (x86)\Exact Audio Copy\Flac\flac.exe
Additional command line options : -8 -V -T "ARTIST=%artist%" -T "TITLE=%title%" -T "ALBUM=%albumtitle%" -T "DATE=%year%" -T "TRACKNUMBER=%tracknr%" -T "GENRE=%genre%" -T "PERFORMER=%albuminterpret%" -T "COMPOSER=%composer%" %haslyrics%--tag-from-file=LYRICS="%lyricsfile%"%haslyrics% -T "ALBUMARTIST=%albumartist%" -T "DISCNUMBER=%cdnumber%" -T "TOTALDISCS=%totalcds%" -T "TOTALTRACKS=%numtracks%" -T "COMMENT=%comment%" %source% -o %dest%
TOC of the extracted CD
Track | Start | Length | Start sector | End sector
---------------------------------------------------------
1 | 0:00.33 | 11:21.37 | 33 | 51144
2 | 11:21.70 | 8:00.38 | 51145 | 87182
3 | 19:22.33 | 7:51.25 | 87183 | 122532
4 | 27:13.58 | 13:22.00 | 122533 | 182682
5 | 40:35.58 | 9:45.00 | 182683 | 226557
6 | 50:20.58 | 4:59.25 | 226558 | 249007
7 | 55:20.08 | 15:01.50 | 249008 | 316632
8 | 70:21.58 | 2:48.50 | 316633 | 329282
Track 1
Filename C:\EAC rips\01 - Song Tong.wav
Pre-gap length 0:00:02.33
Peak level 93.1 %
Extraction speed 2.2 X
Track quality 100.0 %
Test CRC F0A9CB39
Copy CRC F0A9CB39
Track not present in AccurateRip database
Copy OK
Track 2
Filename C:\EAC rips\02 - In a Whisper.wav
Peak level 100.0 %
Extraction speed 2.6 X
Track quality 100.0 %
Test CRC 28B14FB0
Copy CRC 28B14FB0
Track not present in AccurateRip database
Copy OK
Track 3
Filename C:\EAC rips\03 - A Little Peace.wav
Peak level 88.2 %
Extraction speed 2.9 X
Track quality 100.0 %
Test CRC CF457AAC
Copy CRC CF457AAC
Track not present in AccurateRip database
Copy OK
Track 4
Filename C:\EAC rips\04 - Laula, bailando.wav
Peak level 100.0 %
Extraction speed 3.4 X
Track quality 100.0 %
Test CRC C82347FA
Copy CRC C82347FA
Track not present in AccurateRip database
Copy OK
Track 5
Filename C:\EAC rips\05 - Angoli.wav
Peak level 100.0 %
Extraction speed 3.6 X
Track quality 100.0 %
Test CRC 7C690F7D
Copy CRC 7C690F7D
Track not present in AccurateRip database
Copy OK
Track 6
Filename C:\EAC rips\06 - Senza.wav
Peak level 97.0 %
Extraction speed 3.5 X
Track quality 100.0 %
Test CRC 44E6D5C1
Copy CRC 44E6D5C1
Track not present in AccurateRip database
Copy OK
Track 7
Filename C:\EAC rips\07 - Dance for an Only Body.wav
Peak level 92.0 %
Extraction speed 4.2 X
Track quality 100.0 %
Test CRC 3F44B1F8
Copy CRC 3F44B1F8
Track not present in AccurateRip database
Copy OK
Track 8
Filename C:\EAC rips\08 - Song Tong.wav
Peak level 79.7 %
Extraction speed 3.1 X
Track quality 99.9 %
Test CRC 1E4BC94F
Copy CRC 1E4BC94F
Track not present in AccurateRip database
Copy OK
None of the tracks are present in the AccurateRip database
No errors occurred
End of status report
---- CUETools DB Plugin V2.1.4
[CTDB TOCID: I0ebokoRksyoUQm4.kqXcWxqBWs-] disk not present in database
Submit result: Le serveur a commis une violation de protocole. Section=ResponseStatusLine
==== Log checksum B2C8F1A4D89CC47DBCD9B8427048A99159BA9A8843A1629E0362AA07E3AC440C ====
 
Содержание индексной карты (.CUE)
REM GENRE Jazz
REM DATE 1997
REM DISCID 5A112608
REM COMMENT "ExactAudioCopy v1.0b3"
PERFORMER "Paolo Damiani Ensemble"
TITLE "Song Tong"
FILE "01 - Song Tong.wav" WAVE
TRACK 01 AUDIO
TITLE "Song Tong"
PERFORMER "Paolo Damiani Ensemble"
PREGAP 00:00:33
INDEX 01 00:00:00
FILE "02 - In a Whisper.wav" WAVE
TRACK 02 AUDIO
TITLE "In a Whisper"
PERFORMER "Paolo Damiani Ensemble"
INDEX 01 00:00:00
FILE "03 - A Little Peace.wav" WAVE
TRACK 03 AUDIO
TITLE "A Little Peace"
PERFORMER "Paolo Damiani Ensemble"
INDEX 01 00:00:00
FILE "04 - Laula, bailando.wav" WAVE
TRACK 04 AUDIO
TITLE "Laula, bailando"
PERFORMER "Paolo Damiani Ensemble"
INDEX 01 00:00:00
FILE "05 - Angoli.wav" WAVE
TRACK 05 AUDIO
TITLE "Angoli"
PERFORMER "Paolo Damiani Ensemble"
INDEX 01 00:00:00
FILE "06 - Senza.wav" WAVE
TRACK 06 AUDIO
TITLE "Senza"
PERFORMER "Paolo Damiani Ensemble"
INDEX 01 00:00:00
FILE "07 - Dance for an Only Body.wav" WAVE
TRACK 07 AUDIO
TITLE "Dance for an Only Body"
PERFORMER "Paolo Damiani Ensemble"
INDEX 01 00:00:00
FILE "08 - Song Tong.wav" WAVE
TRACK 08 AUDIO
TITLE "Song Tong"
PERFORMER "Paolo Damiani Ensemble"
INDEX 01 00:00:00
Any questions -> support@pro-jazz.com. По всем вопросам пишите -> support@pro-jazz.com
23:39
223
Нет комментариев. Ваш будет первым!