Вы используете незарегистрированную версию компонента "Вкладки"!

Поиск

(Avant-Garde Jazz) [CD] Daunik Lazro Quintet (Joe McPhee, Didier Levallet, Paul Rogers, Christian Rollet) - Dourou - 1997, FLAC (image+.cue), lossless

(Avant-Garde Jazz) [CD] Daunik Lazro Quintet (Joe McPhee, Didier Levallet, Paul Rogers, Christian Rollet) - Dourou - 1997, FLAC (image+.cue), lossless
Треклист:
Daunik Lazro Quintet / Dourou
Жанр: Avant-Garde Jazz
Носитель: CD
Страна-производитель диска: France
Год издания: 1997
Издатель (лейбл): Bleu Regard
Номер по каталогу: CT 1954
Аудиокодек: FLAC (*.flac)
Тип рипа: image+.cue
Битрейт аудио: lossless
Продолжительность: 56:26
Источник (релизер): CD
Наличие сканов в содержимом раздачи: нет
Треклист:
1 Pat. 8:31
2 Africa Lab 20:15
3 Catty 6:04
4 Candide 6:34
5 Malachi 14:41
 
Лог создания рипа
Exact Audio Copy V1.0 beta 2 from 29. April 2011
EAC extraction logfile from 15. February 2014, 11:54
Daunik Lazro Quintet / Dourou
Used drive : Optiarc DVD RW AD-7170A Adapter: 0 ID: 0
Read mode : Secure
Utilize accurate stream : Yes
Defeat audio cache : Yes
Make use of C2 pointers : No
Read offset correction : 48
Overread into Lead-In and Lead-Out : No
Fill up missing offset samples with silence : Yes
Delete leading and trailing silent blocks : No
Null samples used in CRC calculations : Yes
Used interface : Native Win32 interface for Win NT & 2000
Used output format : User Defined Encoder
Selected bitrate : 320 kBit/s
Quality : High
Add ID3 tag : No
Command line compressor : C:\Program Files\Exact Audio Copy\Flac\flac.exe
Additional command line options : -V -8 -T "Date=%year%" -T "Genre=%genre%" %source%
TOC of the extracted CD
Track | Start | Length | Start sector | End sector
---------------------------------------------------------
1 | 0:00.32 | 8:36.18 | 32 | 38749
2 | 8:36.50 | 20:20.30 | 38750 | 130279
3 | 28:57.05 | 6:08.37 | 130280 | 157916
4 | 35:05.42 | 6:38.50 | 157917 | 187816
5 | 41:44.17 | 14:42.60 | 187817 | 254026
Range status and errors
Selected range
Filename K:\ЕАС\Daunik Lazro Quintet - Dourou.wav
Peak level 100.0 %
Extraction speed 1.8 X
Range quality 99.9 %
Test CRC 47B45B54
Copy CRC 47B45B54
Copy OK
No errors occurred
AccurateRip summary
Track 1 accurately ripped (confidence 1) [4C5C3CBB] (AR v1)
Track 2 accurately ripped (confidence 1) [F035144B] (AR v1)
Track 3 accurately ripped (confidence 1) [E8A608E3] (AR v1)
Track 4 accurately ripped (confidence 1) [F7EE8329] (AR v1)
Track 5 accurately ripped (confidence 1) [A3F468AC] (AR v1)
All tracks accurately ripped
End of status report
==== Log checksum 88093B2E9FB57B5E93A7BD348A9A6746B4C7EC7E106D94CC83256C5EA0873E92 ====
 
Содержание индексной карты (.CUE)
REM GENRE Jazz
REM DATE 1997
REM DISCID 3B0D3B05
REM COMMENT "ExactAudioCopy v1.0b2"
CATALOG 0000000000000
PERFORMER "Daunik Lazro Quintet"
TITLE "Dourou"
FILE "Daunik Lazro Quintet - Dourou.flac" WAVE
TRACK 01 AUDIO
TITLE "Pat"
PERFORMER "Daunik Lazro Quintet"
ISRC 000000000000
INDEX 00 00:00:00
INDEX 01 00:00:32
TRACK 02 AUDIO
TITLE "Africa Lab"
PERFORMER "Daunik Lazro Quintet"
ISRC 000000000000
INDEX 00 08:32:47
INDEX 01 08:36:50
TRACK 03 AUDIO
TITLE "Catty"
PERFORMER "Daunik Lazro Quintet"
ISRC 000000000000
INDEX 00 28:51:52
INDEX 01 28:57:05
TRACK 04 AUDIO
TITLE "Candide"
PERFORMER "Daunik Lazro Quintet"
ISRC 000000000000
INDEX 00 35:01:37
INDEX 01 35:05:42
TRACK 05 AUDIO
TITLE "Malachi"
PERFORMER "Daunik Lazro Quintet"
ISRC 000000000000
INDEX 00 41:39:62
INDEX 01 41:44:17
Доп. информация: Recorded at Studios la Buissonne, Pernes les Fontaines, November 10 and 11 1996
 
Об альбоме (сборнике)
European saxophonist Daunik Lazro has begun to make a name for himself in France by recruiting just the right sidemen for his ambitious projects. Utilizing soprano and tenor, Lazro is a supreme lyricist, though not in any conventional sense. His notions of melody and harmony are developed from the underside of jazz improvisation and composition, where counterpoint, interval, and technical invention intertwine to create harmonic vistas that are both intimate and expansive. On Dourou, bassists Didier Levallet and Paul Rogers lend their hands simultaneously for this rhythmic orgy of tonal inquiry, and drummer Christian Rollet keeps the mix flowing as he communicates across the bass-ic terrain, keeping the pair in constant rhythmic and harmonic convergence. The front line consists of Lazro on saxophones and Joe McPhee on trumpet. Here is where things get knotty. McPhee's relationship to his bassists is a complex one. On "Africa Lab," both bass players turn into syncopation machines, alternately playing pizzicato and bowing their tonal stretches in order to displace time and pitch. McPhee smatters and spatters notes along the rhythm line and occasionally winds himself around Lazro, who takes to blowing through the middle to create dynamic tension -- and over the course of 20 minutes that's exactly what happens. On McPhee's "Malachi," trumpet and saxophone play opposite ends of the color spectrum to find not a gray area in between, but a bright yellow or red as the basses double-time Rollet, who accents the heck out of each wound, broken line. It's an amazing feat, full of drama, pathos, and a little humor. In all, Dourou is the disc Lazro has been threatening to make all along, one where the pieces come together and then show their seams. This is an avant-garde jazz wonder.
 
Состав
Alto Saxophone, Baritone Saxophone – Daunik Lazro
Double Bass – Didier Levallet, Paul Rogers
Drums – Christian Rollet
Trumpet [Pocket Trumpet], Soprano Saxophone, Tenor Saxophone – Joe McPhee
Any questions -> support@pro-jazz.com. По всем вопросам пишите -> support@pro-jazz.com
23:38
306
Нет комментариев. Ваш будет первым!