Вы используете незарегистрированную версию компонента "Вкладки"!

Поиск

(Avant-Garde / Free Improvisation) [CD] Pat Thomas / Raymond Strid / Clayton Thomas - Wazifa - 2010, FLAC (image+.cue), lossless

(Avant-Garde / Free Improvisation) [CD] Pat Thomas / Raymond Strid / Clayton Thomas - Wazifa - 2010, FLAC (image+.cue), lossless
Треклист:
Pat Thomas / Raymond Strid / Clayton Thomas / Wazifa
Жанр: Avant-Garde / Free Improvisation
Носитель: CD
Страна-производитель диска: EU
Год издания: 2010
Издатель (лейбл): PSI Records
Номер по каталогу: psi 10.04
Аудиокодек: FLAC (*.flac)
Тип рипа: image+.cue
Битрейт аудио: lossless
Продолжительность: 42:28
Источник (релизер): собственный рип
Наличие сканов в содержимом раздачи: да
Треклист:
1. Perceptive 21:42
2. Preceptive 6:38
3. Perspective 14:07
 
Лог создания рипа
Exact Audio Copy V1.0 beta 3 from 29. August 2011
Отчёт EAC об извлечении, выполненном 16. февраля 2014, 9:48
Pat Thomas, Clayton Thomas, Raymond Strid / Wazifa
Дисковод: HL-DT-STDVDRAM GH22NS70 Adapter: 1 ID: 1
Режим чтения : Достоверность
Использование точного потока : Да
Отключение кэша аудио : Да
Использование указателей C2 : Нет
Коррекция смещения при чтении : 667
Способность читать области Lead-in и Lead-out : Нет
Заполнение пропущенных сэмплов тишиной : Да
Удаление блоков с тишиной в начале и конце : Нет
При вычислениях CRC использовались нулевые сэмплы : Да
Интерфейс : Встроенный Win32-интерфейс для Win NT/2000
Выходной формат : Пользовательский кодировщик
Выбранный битрейт : 768 kBit/s
Качество : Высокий
Добавление ID3-тега : Нет
Утилита сжатия : C:\Program Files\Exact Audio Copy\FLAC\FLAC.EXE
Дополнительные параметры : -V -8 -T "Date=%year%" -T "Genre=%genre%" %source%
TOC извлечённого CD
Трек | Старт | Длительность | Начальный сектор | Конечный сектор
---------------------------------------------------------------------
1 | 0:00.00 | 21:41.46 | 0 | 97620
2 | 21:41.46 | 6:37.62 | 97621 | 127457
3 | 28:19.33 | 14:06.59 | 127458 | 190966
Характеристики диапазона извлечения и сообщения об ошибках
Выбранный диапазон
Имя файла D:\торрент\Мои раздачи\Thomas, Strid, Thomas - Wazifa\Pat Thomas, Clayton Thomas, Raymond Strid - Wazifa.wav
Пиковый уровень 99.6 %
Скорость извлечения 1.6 X
Качество диапазона 100.0 %
CRC теста 697F3CC7
CRC копии 697F3CC7
Копирование... OK
Ошибок не произошло
AccurateRip: сводка
Трек 1 отсутствует в базе данных
Трек 2 отсутствует в базе данных
Трек 3 отсутствует в базе данных
Ни одного трека нет в базе AccurateRip
Конец отчёта
==== Контрольная сумма отчёта 9A06295439C99C99098C8318F2C64D82332F5FCEE7EDD1E89A5275EB60D36964 ====
 
Содержание индексной карты (.CUE)
REM GENRE Jazz
REM DATE 2010
REM DISCID 1209F203
REM COMMENT "ExactAudioCopy v1.0b3"
PERFORMER "Pat Thomas, Clayton Thomas, Raymond Strid"
TITLE "Wazifa"
FILE "Pat Thomas, Clayton Thomas, Raymond Strid - Wazifa.flac" WAVE
TRACK 01 AUDIO
TITLE "Perceptive"
PERFORMER "Pat Thomas, Clayton Thomas, Raymond Strid"
INDEX 01 00:00:00
TRACK 02 AUDIO
TITLE "Preceptive"
PERFORMER "Pat Thomas, Clayton Thomas, Raymond Strid"
INDEX 00 21:37:46
INDEX 01 21:41:46
TRACK 03 AUDIO
TITLE "Perspective"
PERFORMER "Pat Thomas, Clayton Thomas, Raymond Strid"
INDEX 00 28:15:33
INDEX 01 28:19:33
Доп. информация:
Recorded in concert at the 2009 Perspectives Festival, Västerås, Sweden.
 
Состав
Pat Thomas-piano, synthesizer
Clayton Thomas-double bass
Raymond Strid-percussion
Any questions -> support@pro-jazz.com. По всем вопросам пишите -> support@pro-jazz.com
23:40
186
Нет комментариев. Ваш будет первым!