Вы используете незарегистрированную версию компонента "Вкладки"!

Поиск

(Avant-Garde Jazz, Free Improvisation) [CD] The Lou Grassi Po Band with Marshall Allen (Paul Smoker, Steve Swell, Perry Robinson, Wilber Morris) - Live At The Knitting Factory Volume 1 - 2010, FLAC (image+.cue), lossless

(Avant-Garde Jazz, Free Improvisation) [CD] The Lou Grassi Po Band with Marshall Allen (Paul Smoker, Steve Swell, Perry Robinson, Wilber Morris) - Live At The Knitting Factory Volume 1 - 2010, FLAC (image+.cue), lossless
Треклист:
The Lou Grassi Po Band with Marshall Allen / Live At The Knitting Factory Volume 1
Жанр: Avant-Garde Jazz, Free Improvisation
Носитель: CD
Страна-производитель диска: US
Год издания: 2010
Издатель (лейбл): Porter records
Номер по каталогу: 4051
Аудиокодек: FLAC (*.flac)
Тип рипа: image+.cue
Битрейт аудио: lossless
Продолжительность: 60:03
Источник (релизер): CD
Наличие сканов в содержимом раздачи: нет
Треклист:
1. Marshalling Our Spirits (23:26)
2. RePoZest (13:20)
3. LouRa (23:17)
 
Лог создания рипа
Exact Audio Copy V1.0 beta 2 from 29. April 2011
EAC extraction logfile from 17. February 2014, 11:22
The Lou Grassi Po Band with Marshall Allen / Live At The Knitting Factory Vol 1
Used drive : Optiarc DVD RW AD-7170A Adapter: 0 ID: 0
Read mode : Secure
Utilize accurate stream : Yes
Defeat audio cache : Yes
Make use of C2 pointers : No
Read offset correction : 48
Overread into Lead-In and Lead-Out : No
Fill up missing offset samples with silence : Yes
Delete leading and trailing silent blocks : No
Null samples used in CRC calculations : Yes
Used interface : Native Win32 interface for Win NT & 2000
Used output format : User Defined Encoder
Selected bitrate : 320 kBit/s
Quality : High
Add ID3 tag : No
Command line compressor : C:\Program Files\Exact Audio Copy\Flac\flac.exe
Additional command line options : -V -8 -T "Date=%year%" -T "Genre=%genre%" %source%
TOC of the extracted CD
Track | Start | Length | Start sector | End sector
---------------------------------------------------------
1 | 0:00.00 | 23:26.22 | 0 | 105471
2 | 23:26.22 | 13:20.43 | 105472 | 165514
3 | 36:46.65 | 23:17.07 | 165515 | 270296
Range status and errors
Selected range
Filename K:\ЕАС\The Lou Grassi Po Band with Marshall Allen - Live At The Knitting Factory Vol 1.wav
Peak level 100.0 %
Extraction speed 2.0 X
Range quality 100.0 %
Test CRC 5207BED8
Copy CRC 5207BED8
Copy OK
No errors occurred
AccurateRip summary
Track 1 not present in database
Track 2 not present in database
Track 3 not present in database
None of the tracks are present in the AccurateRip database
End of status report
==== Log checksum B416E5D8FF3DD52A054CA0A736E4B7D2BECE76391852DCC5A4381F012BDA6B0C ====
 
Содержание индексной карты (.CUE)
REM GENRE Jazz
REM DATE 2010
REM DISCID 1B0E1303
REM COMMENT "ExactAudioCopy v1.0b2"
PERFORMER "The Lou Grassi Po Band with Marshall Allen"
TITLE "Live At The Knitting Factory Vol 1"
FILE "The Lou Grassi Po Band with Marshall Allen - Live At The Knitting Factory Vol 1.flac" WAVE
TRACK 01 AUDIO
TITLE "Marshalling Our Spirits"
PERFORMER "The Lou Grassi Po Band with Marshall Allen"
ISRC USM3Y4051001
INDEX 01 00:00:00
TRACK 02 AUDIO
TITLE "RePoZest"
PERFORMER "The Lou Grassi Po Band with Marshall Allen"
ISRC USM3Y4051002
INDEX 01 23:26:22
TRACK 03 AUDIO
TITLE "LouRa"
PERFORMER "The Lou Grassi Po Band with Marshall Allen"
ISRC USM3Y4051003
INDEX 01 36:46:65
Доп. информация: Recorded live at the Knitting Factory / NYC on September 26, 2000
 
Состав
Lou Grassi / drums
Marshall Allen / alto sax, flute
Paul Smoker / trumpet
Steve Swell / trombone
Perry Robinson / clarinet
Wilber Morris / bass
По всем вопросам пишите личное сообщение пользователю M0p94ok.
23:41
202
Нет комментариев. Ваш будет первым!