Вы используете незарегистрированную версию компонента "Вкладки"!

Поиск

(Free Jazz, Contemporary Jazz) [CD] Juhani Aaltonen Trio - Illusion Of A Ballad - 2006, FLAC (image+.cue), lossless

(Free Jazz, Contemporary Jazz) [CD] Juhani Aaltonen Trio - Illusion Of A Ballad - 2006, FLAC (image+.cue), lossless
Треклист:
Juhani Aaltonen Trio / Illusion Of A Ballad
Жанр: Free Jazz, Contemporary Jazz
Носитель: CD
Страна-производитель диска: Finland
Год издания: 2006
Издатель (лейбл): TUM Records
Номер по каталогу: TUM CD 013
Аудиокодек: FLAC (*.flac)
Тип рипа: image+.cue
Битрейт аудио: lossless
Продолжительность: 52:12
Источник (релизер): CD
Наличие сканов в содержимом раздачи: нет
Треклист:
1 My Ship 6:39
2 But Not For Me 5:16
3 Broken Shadows 5:47
4 Stella By Starlight 3:53
5 You Don't Know What Love Is 9:17
6 Lonely Woman 6:44
7 Come Sunday 5:57
8 Nature Boy 4:31
9 Lush Life 3:32
 
Лог создания рипа
Exact Audio Copy V1.0 beta 2 from 29. April 2011
EAC extraction logfile from 18. February 2014, 13:38
Juhani Aaltonen Trio / Illusion Of A Ballad
Used drive : Optiarc DVD RW AD-7170A Adapter: 0 ID: 0
Read mode : Secure
Utilize accurate stream : Yes
Defeat audio cache : Yes
Make use of C2 pointers : No
Read offset correction : 48
Overread into Lead-In and Lead-Out : No
Fill up missing offset samples with silence : Yes
Delete leading and trailing silent blocks : No
Null samples used in CRC calculations : Yes
Used interface : Native Win32 interface for Win NT & 2000
Used output format : User Defined Encoder
Selected bitrate : 320 kBit/s
Quality : High
Add ID3 tag : No
Command line compressor : C:\Program Files\Exact Audio Copy\Flac\flac.exe
Additional command line options : -V -8 -T "Date=%year%" -T "Genre=%genre%" %source%
TOC of the extracted CD
Track | Start | Length | Start sector | End sector
---------------------------------------------------------
1 | 0:00.00 | 6:43.16 | 0 | 30240
2 | 6:43.16 | 5:20.31 | 30241 | 54271
3 | 12:03.47 | 5:52.23 | 54272 | 80694
4 | 17:55.70 | 3:57.49 | 80695 | 98518
5 | 21:53.44 | 9:21.00 | 98519 | 140593
6 | 31:14.44 | 6:48.22 | 140594 | 171215
7 | 38:02.66 | 6:01.70 | 171216 | 198360
8 | 44:04.61 | 4:35.12 | 198361 | 218997
9 | 48:39.73 | 3:32.63 | 218998 | 234960
Range status and errors
Selected range
Filename K:\ЕАС\Juhani Aaltonen Trio - Illusion Of A Ballad.wav
Peak level 91.2 %
Extraction speed 1.9 X
Range quality 100.0 %
Test CRC 50F41D76
Copy CRC 50F41D76
Copy OK
No errors occurred
AccurateRip summary
Track 1 cannot be verified as accurate (confidence 1) [D6961438], AccurateRip returned [1CEE60E7] (AR v2)
Track 2 cannot be verified as accurate (confidence 1) [62C0A511], AccurateRip returned [FAE3541A] (AR v2)
Track 3 cannot be verified as accurate (confidence 1) [186BFCE8], AccurateRip returned [41038AD1] (AR v2)
Track 4 cannot be verified as accurate (confidence 1) [61B3D078], AccurateRip returned [1D288F60] (AR v2)
Track 5 cannot be verified as accurate (confidence 1) [CC71291A], AccurateRip returned [84CAEE8D] (AR v2)
Track 6 cannot be verified as accurate (confidence 1) [4244F6CD], AccurateRip returned [B3E7D7D6] (AR v2)
Track 7 cannot be verified as accurate (confidence 1) [5D8A0942], AccurateRip returned [81870601] (AR v2)
Track 8 cannot be verified as accurate (confidence 1) [67B33996], AccurateRip returned [A6EA2EAA] (AR v2)
Track 9 cannot be verified as accurate (confidence 1) [EFC914D4], AccurateRip returned [C5CCC44E] (AR v2)
No tracks could be verified as accurate
You may have a different pressing from the one(s) in the database
End of status report
==== Log checksum 5FDDBC477C3929563CA459A14D52E910231AD9C7CD3FACD477654E24135E4041 ====
 
Содержание индексной карты (.CUE)
REM GENRE Jazz
REM DATE 2006
REM DISCID 780C3C09
REM COMMENT "ExactAudioCopy v1.0b2"
PERFORMER "Juhani Aaltonen Trio"
TITLE "Illusion Of A Ballad"
FILE "Juhani Aaltonen Trio - Illusion Of A Ballad.flac" WAVE
TRACK 01 AUDIO
TITLE "My Ship"
PERFORMER "Juhani Aaltonen Trio"
ISRC FITU90600001
INDEX 01 00:00:00
TRACK 02 AUDIO
TITLE "But Not For Me"
PERFORMER "Juhani Aaltonen Trio"
ISRC FITU90600002
INDEX 00 06:39:47
INDEX 01 06:43:16
TRACK 03 AUDIO
TITLE "Broken Shadows"
PERFORMER "Juhani Aaltonen Trio"
ISRC FITU90600003
INDEX 00 12:00:04
INDEX 01 12:03:47
TRACK 04 AUDIO
TITLE "Stella By Starlight"
PERFORMER "Juhani Aaltonen Trio"
ISRC FITU90600004
INDEX 00 17:51:49
INDEX 01 17:55:70
TRACK 05 AUDIO
TITLE "You Don.t Know What Love Is"
PERFORMER "Juhani Aaltonen Trio"
ISRC FITU90600005
INDEX 00 21:50:04
INDEX 01 21:53:44
TRACK 06 AUDIO
TITLE "Lonely Woman"
PERFORMER "Juhani Aaltonen Trio"
ISRC FITU90600006
INDEX 00 31:10:74
INDEX 01 31:14:44
TRACK 07 AUDIO
TITLE "Come Sunday"
PERFORMER "Juhani Aaltonen Trio"
ISRC FITU90600007
INDEX 00 37:59:19
INDEX 01 38:02:66
TRACK 08 AUDIO
TITLE "Nature Boy"
PERFORMER "Juhani Aaltonen Trio"
ISRC FITU90600008
INDEX 00 44:01:19
INDEX 01 44:04:61
TRACK 09 AUDIO
TITLE "Lush Life"
PERFORMER "Juhani Aaltonen Trio"
ISRC FITU90600009
INDEX 00 48:36:33
INDEX 01 48:39:73
Доп. информация: Recorded at Master Recording in Helsinki, Finland on August 7 and 8, 2004 and May 13, 2005. Mixed at DER in Tammisaari, Finland.
 
Состав
Bass – Ulf Krokfors
Drums – Tom Nekljudow
Tenor Saxophone – Juhani Aaltonen
По всем вопросам пишите личное сообщение пользователю M0p94ok.
23:41
211
Нет комментариев. Ваш будет первым!