Вы используете незарегистрированную версию компонента "Вкладки"!

Поиск

(Contemporary Jazz, Sound Aspects) Clark Suprynowicz / Rinde Eckert - In Sleep a King - 1989, FLAC (tracks+.cue), lossless

(Contemporary Jazz, Sound Aspects) Clark Suprynowicz / Rinde Eckert - In Sleep a King - 1989, FLAC (tracks+.cue), lossless
Треклист:
Clark Suprynowicz / Rinde Eckert / In Sleep a King
Жанр: Contemporary Jazz, Sound Aspects
Страна-производитель диска: Germany
Год издания: 1989
Издатель (лейбл): Sound Aspects
Номер по каталогу: SAS CD 029
Аудиокодек: FLAC (*.flac)
Тип рипа: tracks+.cue
Битрейт аудио: lossless
Продолжительность: 44:57
Источник (релизер): Max Monteiro
Наличие сканов в содержимом раздачи: да
Треклист:
1. In Sleep a King
2. Stopping to Pray
3. Dahboo
4. Paramus, New Jersey
5. What She Said
6. Rinde
7. This Is My Hour
All compositions by Clark Suprynowicz except « This Is My Hour » that was a collective creation.
All texts by Rinde Eckert, except the title in "In Sleep a King" which is from William Shakespeare (Sonnet 87).
Recorded July 1987 at Emeryville Record, Emeryville, CA.
Rinde Eckert – Voice
Andy Laster – Alto Saxophone
Rob Sudduth – Tenor + Soprano Saxophones
Peck Allmond – Trumpet, Tenor Saxophone
Sheldon Brown – Bass Clarinet, B-flat Clarinet, Tenor + Soprano Saxophones
Jai Uttal – Guitar, Guitar Synthesizers
Clark Suprynowicz – Bass
Peter Perfido – Drums
Ward Spangler – Percussion, Vibes, Marimba
Michael Spyro – Congas
 
Лог создания рипа
Exact Audio Copy V1.0 beta 3 from 29. August 2011
EAC extraction logfile from 30. September 2013, 21:16
Clark Suprynowicz / Rinde Eckert / In Sleep a King
Used drive : SlimtypeeNAU508 5 Adapter: 1 ID: 0
Read mode : Secure
Utilize accurate stream : Yes
Defeat audio cache : Yes
Make use of C2 pointers : No
Read offset correction : 6
Overread into Lead-In and Lead-Out : No
Fill up missing offset samples with silence : Yes
Delete leading and trailing silent blocks : No
Null samples used in CRC calculations : Yes
Used interface : Native Win32 interface for Win NT & 2000
Gap handling : Appended to previous track
Used output format : User Defined Encoder
Selected bitrate : 768 kBit/s
Quality : High
Add ID3 tag : No
Command line compressor : C:\Program Files (x86)\Exact Audio Copy\Flac\flac.exe
Additional command line options : -8 -V -T "ARTIST=%artist%" -T "TITLE=%title%" -T "ALBUM=%albumtitle%" -T "DATE=%year%" -T "TRACKNUMBER=%tracknr%" -T "GENRE=%genre%" -T "PERFORMER=%albuminterpret%" -T "COMPOSER=%composer%" %haslyrics%--tag-from-file=LYRICS="%lyricsfile%"%haslyrics% -T "ALBUMARTIST=%albumartist%" -T "DISCNUMBER=%cdnumber%" -T "TOTALDISCS=%totalcds%" -T "TOTALTRACKS=%numtracks%" -T "COMMENT=%comment%" %source% -o %dest%
TOC of the extracted CD
Track | Start | Length | Start sector | End sector
---------------------------------------------------------
1 | 0:00.33 | 8:39.55 | 33 | 39012
2 | 8:40.13 | 6:12.35 | 39013 | 66947
3 | 14:52.48 | 7:49.32 | 66948 | 102154
4 | 22:42.05 | 7:34.23 | 102155 | 136227
5 | 30:16.28 | 6:10.57 | 136228 | 164034
6 | 36:27.10 | 2:02.65 | 164035 | 173249
7 | 38:30.00 | 6:27.53 | 173250 | 202327
Track 1
Filename C:\EAC rips\01 - In Sleep a King.wav
Pre-gap length 0:00:02.33
Peak level 100.0 %
Extraction speed 1.2 X
Track quality 100.0 %
Test CRC 9B9BC835
Copy CRC 9B9BC835
Track not present in AccurateRip database
Copy OK
Track 2
Filename C:\EAC rips\02 - Stopping to Pray.wav
Pre-gap length 0:00:03.70
Peak level 77.7 %
Extraction speed 1.3 X
Track quality 99.9 %
Test CRC A20F6EF6
Copy CRC A20F6EF6
Track not present in AccurateRip database
Copy OK
Track 3
Filename C:\EAC rips\03 - Dahboo.wav
Pre-gap length 0:00:06.08
Peak level 87.9 %
Extraction speed 1.5 X
Track quality 99.9 %
Test CRC 722DE464
Copy CRC 722DE464
Track not present in AccurateRip database
Copy OK
Track 4
Filename C:\EAC rips\04 - Paramus, New Jersey.wav
Pre-gap length 0:00:03.17
Peak level 100.0 %
Extraction speed 1.7 X
Track quality 100.0 %
Test CRC FA063961
Copy CRC FA063961
Track not present in AccurateRip database
Copy OK
Track 5
Filename C:\EAC rips\05 - What She Said.wav
Pre-gap length 0:00:03.48
Peak level 96.5 %
Extraction speed 1.8 X
Track quality 100.0 %
Test CRC B9C47211
Copy CRC B9C47211
Track not present in AccurateRip database
Copy OK
Track 6
Filename C:\EAC rips\06 - Rinde.wav
Pre-gap length 0:00:04.67
Peak level 86.0 %
Extraction speed 1.6 X
Track quality 100.0 %
Test CRC 53A1F271
Copy CRC 53A1F271
Track not present in AccurateRip database
Copy OK
Track 7
Filename C:\EAC rips\07 - This Is My Hour.wav
Pre-gap length 0:00:05.60
Peak level 100.0 %
Extraction speed 2.0 X
Track quality 100.0 %
Test CRC 2B099E01
Copy CRC 2B099E01
Track not present in AccurateRip database
Copy OK
None of the tracks are present in the AccurateRip database
No errors occurred
End of status report
---- CUETools DB Plugin V2.1.4
[CTDB TOCID: bTOTadY96Q4R4bYfHD6q_xzKauQ-] disk not present in database
Submit result: bTOTadY96Q4R4bYfHD6q_xzKauQ- has been uploaded
==== Log checksum 2D03DBD6D9C1A0DE2AE688D0CE1AC76E38D4DC42EAC2C920D7439C0923063E9F ====
 
Содержание индексной карты (.CUE)
REM GENRE Jazz
REM DATE 1989
REM DISCID 5C0A8907
REM COMMENT "ExactAudioCopy v1.0b3"
PERFORMER "Clark Suprynowicz / Rinde Eckert"
TITLE "In Sleep a King"
FILE "01 - In Sleep a King.wav" WAVE
TRACK 01 AUDIO
TITLE "In Sleep a King"
PERFORMER "Clark Suprynowicz / Rinde Eckert"
PREGAP 00:00:33
INDEX 01 00:00:00
TRACK 02 AUDIO
TITLE "Stopping to Pray"
PERFORMER "Clark Suprynowicz / Rinde Eckert"
INDEX 00 08:35:60
FILE "02 - Stopping to Pray.wav" WAVE
INDEX 01 00:00:00
TRACK 03 AUDIO
TITLE "Dahboo"
PERFORMER "Clark Suprynowicz / Rinde Eckert"
INDEX 00 06:06:27
FILE "03 - Dahboo.wav" WAVE
INDEX 01 00:00:00
TRACK 04 AUDIO
TITLE "Paramus, New Jersey"
PERFORMER "Clark Suprynowicz / Rinde Eckert"
INDEX 00 07:46:15
FILE "04 - Paramus, New Jersey.wav" WAVE
INDEX 01 00:00:00
TRACK 05 AUDIO
TITLE "What She Said"
PERFORMER "Clark Suprynowicz / Rinde Eckert"
INDEX 00 07:30:50
FILE "05 - What She Said.wav" WAVE
INDEX 01 00:00:00
TRACK 06 AUDIO
TITLE "Rinde"
PERFORMER "Clark Suprynowicz / Rinde Eckert"
INDEX 00 06:05:65
FILE "06 - Rinde.wav" WAVE
INDEX 01 00:00:00
TRACK 07 AUDIO
TITLE "This Is My Hour"
PERFORMER "Clark Suprynowicz / Rinde Eckert"
INDEX 00 01:57:05
FILE "07 - This Is My Hour.wav" WAVE
INDEX 01 00:00:00
Any questions -> support@pro-jazz.com. По всем вопросам пишите -> support@pro-jazz.com
18:47
110
Нет комментариев. Ваш будет первым!