Вы используете незарегистрированную версию компонента "Вкладки"!

Поиск

(Free Jazz, Avant-Garde Jazz, Nine Winds) New Orchestra Workshop - The Future Is N.O.W. - 1990, FLAC (tracks+.cue), lossless

(Free Jazz, Avant-Garde Jazz, Nine Winds) New Orchestra Workshop - The Future Is N.O.W. - 1990, FLAC (tracks+.cue), lossless
Треклист:
New Orchestra Workshop / The Future Is N.O.W.
Жанр: Free Jazz, Avant-Garde Jazz, Nine Winds
Страна-производитель диска: US
Год издания: 1990
Издатель (лейбл): 9 Winds Records
Номер по каталогу: NWCD 0131
Страна: Canada
Аудиокодек: FLAC (*.flac)
Тип рипа: tracks+.cue
Битрейт аудио: lossless
Продолжительность: 55:37
Источник (релизер): свой фирменный диск
Наличие сканов в содержимом раздачи:
Треклист:
1. Paul Plimley Octet - Pages From The Diary Of Dreams 8:56
2. Lunar Adventures - Harmolodic Highlander 6:25
3. Turnaround - Departure 6:05
4. Unity - Lookout 10:58
5. Lunar Adventures - Son Of Styptodisc 7:20
6. Chief Feature - Tibetan Tears Of Joy And Sadness 15:46
 
Лог создания рипа
Exact Audio Copy V1.0 beta 3 from 29. August 2011
EAC extraction logfile from 5. October 2013, 22:11
New Orchestra Workshop / The Future Is N.O.W.
Used drive : TSSTcorpCDDVDW SH-222AB Adapter: 1 ID: 0
Read mode : Secure
Utilize accurate stream : Yes
Defeat audio cache : Yes
Make use of C2 pointers : No
Read offset correction : 6
Overread into Lead-In and Lead-Out : No
Fill up missing offset samples with silence : Yes
Delete leading and trailing silent blocks : No
Null samples used in CRC calculations : Yes
Used interface : Installed external ASPI interface
Gap handling : Appended to previous track
Used output format : User Defined Encoder
Selected bitrate : 896 kBit/s
Quality : High
Add ID3 tag : No
Command line compressor : C:\Program Files\Exact Audio Copy\FLAC\FLAC.EXE
Additional command line options : -6 -V -T "ARTIST=%artist%" -T "TITLE=%title%" -T "ALBUM=%albumtitle%" -T "DATE=%year%" -T "TRACKNUMBER=%tracknr%" -T "GENRE=%genre%" -T "COMMENT=%comment%" -T "BAND=%albuminterpret%" -T "COMPOSER=%composer%" %haslyrics%--tag-from-file=LYRICS="%lyricsfile%"%haslyrics% -T "DISCNUMBER=%cdnumber%" -T "TOTALDISCS=%totalcds%" -T "TOTALTRACKS=%numtracks%" %hascover%--picture="%coverfile%"%hascover% %source% -o %dest%
TOC of the extracted CD
Track | Start | Length | Start sector | End sector
---------------------------------------------------------
1 | 0:00.00 | 8:58.25 | 0 | 40374
2 | 8:58.25 | 6:27.50 | 40375 | 69449
3 | 15:26.00 | 6:04.12 | 69450 | 96761
4 | 21:30.12 | 10:58.25 | 96762 | 146136
5 | 32:28.37 | 7:22.38 | 146137 | 179324
6 | 39:51.00 | 15:46.65 | 179325 | 250339
Track 1
Filename D:\zzz\01 - Pages From The Diary Of Dreams.wav
Pre-gap length 0:00:02.00
Peak level 86.5 %
Extraction speed 2.9 X
Track quality 100.0 %
Test CRC 18F0E79B
Copy CRC 18F0E79B
Accurately ripped (confidence 2) [7889D547] (AR v1)
Copy OK
Track 2
Filename D:\zzz\02 - Harmolodic Highlander.wav
Pre-gap length 0:00:00.65
Peak level 82.1 %
Extraction speed 2.9 X
Track quality 100.0 %
Test CRC D501EA44
Copy CRC D501EA44
Accurately ripped (confidence 2) [34E0B803] (AR v1)
Copy OK
Track 3
Filename D:\zzz\03 - Departure.wav
Pre-gap length 0:00:01.23
Peak level 88.5 %
Extraction speed 2.9 X
Track quality 100.0 %
Test CRC 0F5799B8
Copy CRC 0F5799B8
Accurately ripped (confidence 2) [F4F13E97] (AR v1)
Copy OK
Track 4
Filename D:\zzz\04 - Lookout.wav
Pre-gap length 0:00:00.02
Peak level 92.0 %
Extraction speed 2.8 X
Track quality 99.9 %
Test CRC 4B8DEFE5
Copy CRC 4B8DEFE5
Accurately ripped (confidence 2) [6ECA8288] (AR v1)
Copy OK
Track 5
Filename D:\zzz\05 - Son Of Styptodisc.wav
Pre-gap length 0:00:00.22
Peak level 94.6 %
Extraction speed 2.9 X
Track quality 100.0 %
Test CRC 9AA524B8
Copy CRC 9AA524B8
Accurately ripped (confidence 2) [2885FCB5] (AR v1)
Copy OK
Track 6
Filename D:\zzz\06 - Tibetan Tears Of Joy And Sadness.wav
Pre-gap length 0:00:01.60
Peak level 97.2 %
Extraction speed 2.9 X
Track quality 99.9 %
Test CRC 90457C34
Copy CRC 90457C34
Accurately ripped (confidence 2) [DAC2B9E9] (AR v1)
Copy OK
All tracks accurately ripped
No errors occurred
End of status report
==== Log checksum 4FC2337E221B72FF532484A6FC7309C7A4E08ED504B69F83339A3E0C6BF75E5D ====
 
Содержание индексной карты (.CUE)
REM GENRE "Avant-Garde Jazz"
REM DATE 1990
REM DISCID 4C0D0906
REM COMMENT "ExactAudioCopy v1.0b3"
PERFORMER "New Orchestra Workshop"
TITLE "The Future Is N.O.W."
FILE "01 - Pages From The Diary Of Dreams.wav" WAVE
TRACK 01 AUDIO
TITLE "Pages From The Diary Of Dreams"
PERFORMER "Paul Plimley Octet"
INDEX 01 00:00:00
TRACK 02 AUDIO
TITLE "Harmolodic Highlander"
PERFORMER "Lunar Adventures"
INDEX 00 08:57:35
FILE "02 - Harmolodic Highlander.wav" WAVE
INDEX 01 00:00:00
TRACK 03 AUDIO
TITLE "Departure"
PERFORMER "Turnaround"
INDEX 00 06:26:27
FILE "03 - Departure.wav" WAVE
INDEX 01 00:00:00
TRACK 04 AUDIO
TITLE "Lookout"
PERFORMER "Unity"
INDEX 00 06:04:10
FILE "04 - Lookout.wav" WAVE
INDEX 01 00:00:00
TRACK 05 AUDIO
TITLE "Son Of Styptodisc"
PERFORMER "Lunar Adventures"
INDEX 00 10:58:03
FILE "05 - Son Of Styptodisc.wav" WAVE
INDEX 01 00:00:00
TRACK 06 AUDIO
TITLE "Tibetan Tears Of Joy And Sadness"
PERFORMER "Chief Feature"
INDEX 00 07:20:53
FILE "06 - Tibetan Tears Of Joy And Sadness.wav" WAVE
INDEX 01 00:00:00
 
Лог проверки качества
d:\>d:\aucdtect -d/-m0 d:\zzz\*.wav
auCDtect: CD records authenticity detector, version 0.8.2
Copyright (c) 2004 Oleg Berngardt. All rights reserved.
Copyright (c) 2004 Alexander Djourik. All rights reserved.
------------------------------------------------------------
Processing file: [01. Pages From The Diary Of Dreams.wav]
------------------------------------------------------------
This track looks like CDDA with probability 100%
------------------------------------------------------------
Processing file: [02. Harmolodic Highlander.wav]
------------------------------------------------------------
This track looks like CDDA with probability 100%
------------------------------------------------------------
Processing file: [03. Departure.wav]
------------------------------------------------------------
This track looks like CDDA with probability 100%
------------------------------------------------------------
Processing file: [04. Lookout.wav]
------------------------------------------------------------
This track looks like CDDA with probability 100%
------------------------------------------------------------
Processing file: [05. Son Of Styptodisc.wav]
------------------------------------------------------------
This track looks like CDDA with probability 100%
------------------------------------------------------------
Processing file: [06. Tibetan Tears Of Joy And Sadness.wav]
------------------------------------------------------------
This track looks like CDDA with probability 99%
------------------------------------------------------------
Final Conclusion:
------------------------------------------------------------
These tracks looks like CDDA with probability 100%
Доп. информация:
 
CD Liner Notes
Inspired by Chicago's AACM and Woodstock's Creative Music Studio, a small group of Vancouver composers and improvisators founded the New Orchestra Workshop (N.O.W.) in 1977. Since then, N.O.W. has weathered times of feast and famine (government fundings vs. self-promoted events) and emerged with an impressive record of contribution to the West Coast contemporary music scene. The membership of the workshop has undergone some changes over the years, but today's nine person group includes several of N.O.W.'s earliest members.
The five ensembles represented on this CD consist of the members of the Workshop plus a fine cross-section of Vancouver improvisors.
As we enter the 1990's, it becomes increasingly clear that, despite the globalisation of culture, every part of our world has its own unique character. This vital music reflects a culture indigenous to the West Coast of Canada.
 
Состав
Paul Plimley Octet (1)
Coat Cooke: sax (2,5)
Gregg Simpson: drums (2,5)
Kate Hammett-Vaughan: vocals (3)
Ron Samworth: guitar (2,3,5)
Ken Lister: bass (3)
Roy Styffe: alto sax (3)
Stan Taylor: drums (3)
Scott White: bass (3)
Graham Ord: reeds (4)
Daniel Lapp: trumpet, violin (4)
Paul Blaney: bass (4)
Roger Baird: drums (4)
Bruce Freedman: tenor sax (6)
Claude Ranger: drums (6)
Bill Clark: trumpet (6)
Clyde Reed: bass (2,5,6)
По всем вопросам пишите личное сообщение пользователю M0p94ok.
18:46
122
Нет комментариев. Ваш будет первым!