Вы используете незарегистрированную версию компонента "Вкладки"!

Поиск

(free jazz) Prince Lasha Ensemble - Insight 1966, FLAC (tracks+.cue), lossless

(free jazz) Prince Lasha Ensemble - Insight 1966, FLAC (tracks+.cue), lossless
Треклист:


Prince Lasha Ensemble - Insight 1966

Жанр: free jazz
Год выпуска: 1966
Издатель (лейбл):2009, Dusty Groove America / DGA3023
Формат: FLAC (tracks+.cue)
Битрейт аудио: lossless
Продолжительность 39`48
Источник: what.cd, FrankCannon
Alto Saxophone – Prince Lasha
Bass – Bruce Cale (tracks: 5, 6), Dave Willis (4), Jeff Clyne (tracks: 3, 4), Rick Laird
Drums – Joe Oliver (2)
Flute – Prince Lasha
Harp – David Snell (2)
Piano – Mike Carr (2) (tracks: 6), Stan Tracey
Trombone – John Mumford
Trumpet – Chris Bateson

tracks

1 Nuttin Out Jones 6:16
2 Out Of Nowhere 7:37
3 Body & Soul 6:32
4 Impressions Of Eric Dolphy 7:06
5 Everything Happens To Me 5:23
6 Just Friends 6:54


 
.log
X Lossless Decoder version 20130720 (144.0)
XLD extraction logfile from 2013-08-29 10:17:17 -0400
Prince Lasha Ensemble / Insight
Used drive : HL-DT-ST DVDRW GX30N (revision RP09)
Media type : Pressed CD
Ripper mode : XLD Secure Ripper
Disable audio cache : OK for the drive with a cache less than 1375KiB
Make use of C2 pointers : NO
Read offset correction : 6
Max retry count : 100
Gap status : Analyzed, Appended
TOC of the extracted CD
Track | Start | Length | Start sector | End sector
---------------------------------------------------------
1 | 00:00:00 | 06:16:32 | 0 | 28231
2 | 06:16:32 | 07:36:45 | 28232 | 62476
3 | 13:53:02 | 06:32:35 | 62477 | 91911
4 | 20:25:37 | 07:05:35 | 91912 | 123821
5 | 27:30:72 | 05:23:43 | 123822 | 148089
6 | 32:54:40 | 06:53:72 | 148090 | 179136
AccurateRip Summary (DiscID: 0009ab46-00337861-55095406)
Track 01 : OK (v2, confidence 1/1)
Track 02 : OK (v2, confidence 1/1)
Track 03 : OK (v2, confidence 1/1)
Track 04 : OK (v2, confidence 1/1)
Track 05 : OK (v2, confidence 1/1)
Track 06 : OK (v2, confidence 1/1)
->All tracks accurately ripped.
All Tracks
Album gain : -5.39 dB
Peak : 0.999969
Statistics
Read error : 0
Jitter error (maybe fixed) : 0
Retry sector count : 0
Damaged sector count : 0
Track 01
Filename : /Users/al/Bunny/01 Prince Lasha Ensemble - Nuttin Out Jones.mp3
/Users/al/Bunny/01 Prince Lasha Ensemble - Nuttin Out Jones.flac
Pre-gap length : 00:02:00
Track gain : -6.53 dB
Peak : 0.996460
CRC32 hash (test run) : E7FBEEDB
CRC32 hash : E7FBEEDB
CRC32 hash (skip zero) : 92D3816E
AccurateRip v1 signature : 3449007B
AccurateRip v2 signature : D6326FED
->Accurately ripped (v2, confidence 1/1)
Statistics
Read error : 0
Jitter error (maybe fixed) : 0
Retry sector count : 0
Damaged sector count : 0
Track 02
Filename : /Users/al/Bunny/02 Prince Lasha Ensemble - Out Of Nowhere.mp3
/Users/al/Bunny/02 Prince Lasha Ensemble - Out Of Nowhere.flac
Pre-gap length : 00:01:55
Track gain : -6.08 dB
Peak : 0.999969
CRC32 hash (test run) : E81DFC79
CRC32 hash : E81DFC79
CRC32 hash (skip zero) : 6CD13935
AccurateRip v1 signature : B2030928
AccurateRip v2 signature : CB4D747B
->Accurately ripped (v2, confidence 1/1)
Statistics
Read error : 0
Jitter error (maybe fixed) : 0
Retry sector count : 0
Damaged sector count : 0
Track 03
Filename : /Users/al/Bunny/03 Prince Lasha Ensemble - Body & Soul.mp3
/Users/al/Bunny/03 Prince Lasha Ensemble - Body & Soul.flac
Pre-gap length : 00:01:55
Track gain : -2.68 dB
Peak : 0.999908
CRC32 hash (test run) : 0DE3CFCC
CRC32 hash : 0DE3CFCC
CRC32 hash (skip zero) : EA8419B7
AccurateRip v1 signature : 5CB2A853
AccurateRip v2 signature : 7C55DF6F
->Accurately ripped (v2, confidence 1/1)
Statistics
Read error : 0
Jitter error (maybe fixed) : 0
Retry sector count : 0
Damaged sector count : 0
Track 04
Filename : /Users/al/Bunny/04 Prince Lasha Ensemble - Impressions Of Eric Dolphy.mp3
/Users/al/Bunny/04 Prince Lasha Ensemble - Impressions Of Eric Dolphy.flac
Pre-gap length : 00:01:55
Track gain : -4.46 dB
Peak : 0.995819
CRC32 hash (test run) : 663F139B
CRC32 hash : 663F139B
CRC32 hash (skip zero) : A17E399A
AccurateRip v1 signature : 8FAB7541
AccurateRip v2 signature : 1E46C438
->Accurately ripped (v2, confidence 1/1)
Statistics
Read error : 0
Jitter error (maybe fixed) : 0
Retry sector count : 0
Damaged sector count : 0
Track 05
Filename : /Users/al/Bunny/05 Prince Lasha Ensemble - Everything Happens To Me.mp3
/Users/al/Bunny/05 Prince Lasha Ensemble - Everything Happens To Me.flac
Pre-gap length : 00:01:55
Track gain : -3.86 dB
Peak : 0.950928
CRC32 hash (test run) : 60A04925
CRC32 hash : 60A04925
CRC32 hash (skip zero) : 22341D94
AccurateRip v1 signature : 1FBD9F22
AccurateRip v2 signature : 6FDC3F8F
->Accurately ripped (v2, confidence 1/1)
Statistics
Read error : 0
Jitter error (maybe fixed) : 0
Retry sector count : 0
Damaged sector count : 0
Track 06
Filename : /Users/al/Bunny/06 Prince Lasha Ensemble - Just Friends.mp3
/Users/al/Bunny/06 Prince Lasha Ensemble - Just Friends.flac
Pre-gap length : 00:01:70
Track gain : -5.96 dB
Peak : 0.922577
CRC32 hash (test run) : FA82ABDD
CRC32 hash : FA82ABDD
CRC32 hash (skip zero) : 8CCDBBBD
AccurateRip v1 signature : C4521D05
AccurateRip v2 signature : 6933D385
->Accurately ripped (v2, confidence 1/1)
Statistics
Read error : 0
Jitter error (maybe fixed) : 0
Retry sector count : 0
Damaged sector count : 0
No errors occurred
End of status report
 
.cue
TITLE "Insight"
PERFORMER "Prince Lasha Ensemble"
REM GENRE "Jazz"
REM DATE "1966"
REM DISCID 55095406
REM REPLAYGAIN_ALBUM_GAIN -5.39 dB
REM REPLAYGAIN_ALBUM_PEAK 0.999969
FILE "01 Prince Lasha Ensemble - Nuttin Out Jones.flac" WAVE
TRACK 01 AUDIO
TITLE "Nuttin Out Jones"
ISRC GBBBN6600031
REM REPLAYGAIN_TRACK_GAIN -6.53 dB
REM REPLAYGAIN_TRACK_PEAK 0.996460
INDEX 01 00:00:00
TRACK 02 AUDIO
TITLE "Out Of Nowhere"
ISRC GBBBN6600032
REM REPLAYGAIN_TRACK_GAIN -6.08 dB
REM REPLAYGAIN_TRACK_PEAK 0.999969
INDEX 00 06:14:52
FILE "02 Prince Lasha Ensemble - Out Of Nowhere.flac" WAVE
INDEX 01 00:00:00
TRACK 03 AUDIO
TITLE "Body & Soul"
ISRC GBBBN6600033
REM REPLAYGAIN_TRACK_GAIN -2.68 dB
REM REPLAYGAIN_TRACK_PEAK 0.999908
INDEX 00 07:34:65
FILE "03 Prince Lasha Ensemble - Body & Soul.flac" WAVE
INDEX 01 00:00:00
TRACK 04 AUDIO
TITLE "Impressions Of Eric Dolphy"
ISRC GBBBN6600034
REM REPLAYGAIN_TRACK_GAIN -4.46 dB
REM REPLAYGAIN_TRACK_PEAK 0.995819
INDEX 00 06:30:55
FILE "04 Prince Lasha Ensemble - Impressions Of Eric Dolphy.flac" WAVE
INDEX 01 00:00:00
TRACK 05 AUDIO
TITLE "Everything Happens To Me"
ISRC GBBBN6600035
REM REPLAYGAIN_TRACK_GAIN -3.86 dB
REM REPLAYGAIN_TRACK_PEAK 0.950928
INDEX 00 07:03:55
FILE "05 Prince Lasha Ensemble - Everything Happens To Me.flac" WAVE
INDEX 01 00:00:00
TRACK 06 AUDIO
TITLE "Just Friends"
ISRC GBBBN6600036
REM REPLAYGAIN_TRACK_GAIN -5.96 dB
REM REPLAYGAIN_TRACK_PEAK 0.922577
INDEX 00 05:21:48
FILE "06 Prince Lasha Ensemble - Just Friends.flac" WAVE
INDEX 01 00:00:00
 
.accurip
[CUETools log; Date: 06/10/13 01:22:24; Version: 2.1.4]
[CTDB TOCID: Xs63tP7c1fe_Vh_dGdH0xvPrX28-] found.
Track | CTDB Status
1 | (2/2) Accurately ripped
2 | (2/2) Accurately ripped
3 | (2/2) Accurately ripped
4 | (2/2) Accurately ripped
5 | (2/2) Accurately ripped
6 | (2/2) Accurately ripped
[AccurateRip ID: 0009ab46-00337861-55095406] found.
Track [ CRC | V2 ] Status
01 [3449007b|d6326fed] (0+1/1) Accurately ripped
02 [b2030928|cb4d747b] (0+1/1) Accurately ripped
03 [5cb2a853|7c55df6f] (0+1/1) Accurately ripped
04 [8fab7541|1e46c438] (0+1/1) Accurately ripped
05 [1fbd9f22|6fdc3f8f] (0+1/1) Accurately ripped
06 [c4521d05|6933d385] (0+1/1) Accurately ripped
Track Peak [ CRC32 ] [W/O NULL]
-- 100.0 [5032C133] [6D3CAAB4]
01 99.6 [E7FBEEDB] [92D3816E]
02 100.0 [E81DFC79] [6CD13935]
03 99.9 [0DE3CFCC] [EA8419B7]
04 99.5 [663F139B] [A17E399A]
05 95.0 [60A04925] [22341D94]
06 92.2 [FA82ABDD] [8CCDBBBD]

другие релизы
Any questions -> support@pro-jazz.com. По всем вопросам пишите -> support@pro-jazz.com
18:47
140
Нет комментариев. Ваш будет первым!