Вы используете незарегистрированную версию компонента "Вкладки"!

Поиск

(Contemporary Jazz) Satoko Fujii - Toward, "TO WEST" - 2000, APE (image+.cue), lossless

(Contemporary Jazz) Satoko Fujii - Toward, "TO WEST" - 2000, APE (image+.cue), lossless
Треклист:
Satoko Fujii - Toward, "TO WEST"
Жанр: Contemporary Jazz
Год выпуска диска: 2000
Производитель диска: Germany (Enja)
Аудио кодек: APE
Тип рипа: image+.cue
Битрейт аудио: lossless
Продолжительность: 58'09
Трэклист:
1. Toward, "To West"
2. Shake Up And Down
3. Oscillation
4. Then I Met You
5. The Way To Get There
Satoko Fujii, piano
Mark Dresser, bass
Jim Black, drums
Доп. информация:
 
Отчет ЕАС
Exact Audio Copy V0.99 prebeta 3 from 28. July 2007
Отчёт EAC об извлечении, выполненном 1. марта 2009, 18:12
Satoko Fujii / Toward, "TO WEST"
Дисковод: Optiarc DVD RW AD-7170S Adapter: 1 ID: 1
Режим чтения : Достоверность
Использование точного потока : Да
Отключение кэша аудио : Да
Использование указателей C2 : Нет
Коррекция смещения при чтении : 48
Способность читать области Lead-in и Lead-out : Нет
Заполнение пропущенных сэмплов тишиной : Да
Удаление блоков с тишиной в начале и конце : Нет
При вычислениях CRC использовались нулевые сэмплы : Да
Интерфейс : Встроенный Win32-интерфейс для Win NT/2000
Выходной формат : Внутренние WAV-операции
Формат сэмплов : 44.100 Гц; 16 бит; стерео
TOC извлечённого CD
Трек | Старт | Длительность | Начальный сектор | Конечный сектор
---------------------------------------------------------------------
1 | 0:00.00 | 32:13.12 | 0 | 144986
2 | 32:13.12 | 7:24.43 | 144987 | 178329
3 | 39:37.55 | 4:03.12 | 178330 | 196566
4 | 43:40.67 | 7:20.45 | 196567 | 229611
5 | 51:01.37 | 7:07.55 | 229612 | 261691
Характеристики диапазона извлечения и сообщения об ошибках
Выбранный диапазон
Имя файла D:\audio_tmp\Satoko Fujii - Toward, TO WEST\Satoko Fujii - Toward, TO WEST.wav
Пиковый уровень 100.0 %
Качество диапазона 99.9 %
CRC копии E61B985E
Копирование... OK
Ошибок не произошло
AccurateRip: сводка
Трек 1 нет в базе данных
Трек 2 нет в базе данных
Трек 3 нет в базе данных
Трек 4 нет в базе данных
Трек 5 нет в базе данных
Ни одного трека нет в базе AccurateRip
Конец отчёта
Any questions -> support@pro-jazz.com. По всем вопросам пишите -> support@pro-jazz.com
08:48
142
Нет комментариев. Ваш будет первым!