Вы используете незарегистрированную версию компонента "Вкладки"!

Поиск

(Avant-Garde / Free Improvisation) Ingebrigt Håker Flaten (Haker) - Double Bass - 2003, FLAC (image+.cue), lossless

(Avant-Garde / Free Improvisation) Ingebrigt Håker Flaten (Haker) - Double Bass - 2003, FLAC (image+.cue), lossless
Треклист:
Ingebrigt Håker Flaten - Double Bass
Жанр: Avant-Garde / Free Improvisation
Год выпуска диска: 2003
Производитель диска: Norway (Sofa)
Аудио кодек: FLAC
Тип рипа: image+.cue
Битрейт аудио: lossless
Продолжительность: 45:12
Ingebrigt Håker Flaten double bass
1. Danger Music
2. The Joy Of German Bowing I
3. Slides
4. ULV ULV
5. Babylon
6. Kindred Spirit
7. Ggahmeshu
8. I Loves...
9. Swedish Impressions
10. Cats & Dogs
11. The Joy Of German Bowing II
 
EAC Report
Exact Audio Copy V0.99 prebeta 4 from 23. January 2008
EAC extraction logfile from 31. October 2008, 13:16
Ingebrigt Håker Flaten / Double Bass
Used drive : HL-DT-STDVD-ROM GDR8162B Adapter: 1 ID: 0
Read mode : Secure
Utilize accurate stream : Yes
Defeat audio cache : Yes
Make use of C2 pointers : No
Read offset correction : 102
Overread into Lead-In and Lead-Out : No
Fill up missing offset samples with silence : Yes
Delete leading and trailing silent blocks : No
Null samples used in CRC calculations : Yes
Used interface : Installed external ASPI interface
Used output format : User Defined Encoder
Selected bitrate : 1024 kBit/s
Quality : High
Add ID3 tag : No
Command line compressor : C:\Program Files\Exact Audio Copy\FLAC\FLAC.EXE
Additional command line options : -6 -V -T "ARTIST=%a" -T "TITLE=%t" -T "ALBUM=%g" -T "DATE=%y" -T "TRACKNUMBER=%n" -T "GENRE=%m" -T "COMMENT=%e" %s -o %d
TOC of the extracted CD
Track | Start | Length | Start sector | End sector
---------------------------------------------------------
1 | 0:00.00 | 2:47.16 | 0 | 12540
2 | 2:47.16 | 3:13.02 | 12541 | 27017
3 | 6:00.18 | 1:53.73 | 27018 | 35565
4 | 7:54.16 | 2:43.60 | 35566 | 47850
5 | 10:38.01 | 2:19.55 | 47851 | 58330
6 | 12:57.56 | 2:09.59 | 58331 | 68064
7 | 15:07.40 | 2:03.05 | 68065 | 77294
8 | 17:10.45 | 6:40.04 | 77295 | 107298
9 | 23:50.49 | 12:31.05 | 107299 | 163628
10 | 36:21.54 | 4:05.14 | 163629 | 182017
11 | 40:26.68 | 4:45.13 | 182018 | 203405
Range status and errors
Selected range
Filename C:\eac\Ingebrigt Håker Flaten - Double Bass.wav
Peak level 98.9 %
Range quality 100.0 %
Copy CRC 080350FD
Copy OK
No errors occurred
End of status report
Any questions -> support@pro-jazz.com. По всем вопросам пишите -> support@pro-jazz.com
08:48
143
Нет комментариев. Ваш будет первым!