Вы используете незарегистрированную версию компонента "Вкладки"!

Поиск

(Modern Creative, World Fusion) Ned Rothenberg - Ghost Stories {Tzadik} - 2000, FLAC (tracks+.cue), lossless

(Modern Creative, World Fusion) Ned Rothenberg - Ghost Stories {Tzadik} - 2000, FLAC (tracks+.cue), lossless
Треклист:
Ned Rothenberg
Ghost Stories


Жанр: Modern Creative, World Fusion
Год выпуска диска: 2000
Производитель диска: USA (Tzadik)
Аудио кодек: FLAC
Тип рипа: tracks+.cue
Битрейт аудио: lossless
Продолжительность: 61:19
1. ARBOR VITAE - 16:41
Riley Lee - shakuhachi
Ned Rothenberg - clarinet
2. GHOST STORIES - 19:41
Min Xiao-Fen - pipa
Erik Friedlander - cello
Satoshi Takeishi - percussion
3. DUET FOR ALTO SAXOPHONE AND PERCUSSION - 18:01
Ned Rothenberg - alto saxophone
Satoshi Takeishi - percussion
4. KAGAMI - 6:30
Ned Rothenberg - shakuhachi
All music composed by Ned Rothenberg
(c)(p) 2000 TZADIK
TZ 7061
 
EAC extraction logfile from 11. November 2008, 20:25
Exact Audio Copy V0.99 prebeta 4 from 23. January 2008
EAC extraction logfile from 11. November 2008, 20:25
Ned Rothenberg / Ghost Stories
Used drive : PLEXTOR DVDR PX-760A Adapter: 0 ID: 0
Read mode : Secure
Utilize accurate stream : Yes
Defeat audio cache : Yes
Make use of C2 pointers : No
Read offset correction : 30
Overread into Lead-In and Lead-Out : Yes
Fill up missing offset samples with silence : Yes
Delete leading and trailing silent blocks : No
Null samples used in CRC calculations : Yes
Used interface : Native Win32 interface for Win NT & 2000
Gap handling : Appended to previous track
Used output format : User Defined Encoder
Selected bitrate : 128 kBit/s
Quality : High
Add ID3 tag : No
Command line compressor : C:\Program Files\FLAC\flac.exe
Additional command line options : -8 -V -T "ARTIST=%a" -T "TITLE=%t" -T "ALBUM=%g" -T "DATE=%y" -T "TRACKNUMBER=%n" -T "GENRE=%m" -T "COMMENT=EAC FLAC -8" %s
TOC of the extracted CD
Track | Start | Length | Start sector | End sector
---------------------------------------------------------
1 | 0:00.00 | 16:48.60 | 0 | 75659
2 | 16:48.60 | 19:50.00 | 75660 | 164909
3 | 36:38.60 | 18:07.70 | 164910 | 246504
4 | 54:46.55 | 6:32.55 | 246505 | 275959
Track 1
Filename H:\Ned Rothenberg - Ghost Stories (2000) [FLAC]\01 - Arbor Vitae.wav
Pre-gap length 0:00:02.00
Peak level 88.9 %
Track quality 99.9 %
Test CRC 376C6A9B
Copy CRC 376C6A9B
Track not present in AccurateRip database
Copy OK
Track 2
Filename H:\Ned Rothenberg - Ghost Stories (2000) [FLAC]\02 - Ghost Stories.wav
Pre-gap length 0:00:06.38
Peak level 98.8 %
Track quality 100.0 %
Test CRC 1222C49B
Copy CRC 1222C49B
Track not present in AccurateRip database
Copy OK
Track 3
Filename H:\Ned Rothenberg - Ghost Stories (2000) [FLAC]\03 - Duet for Alto Saxophone and Percussion.wav
Pre-gap length 0:00:08.45
Peak level 97.7 %
Track quality 100.0 %
Test CRC C68F5BF2
Copy CRC C68F5BF2
Track not present in AccurateRip database
Copy OK
Track 4
Filename H:\Ned Rothenberg - Ghost Stories (2000) [FLAC]\04 - Kagami.wav
Pre-gap length 0:00:06.10
Peak level 94.0 %
Track quality 100.0 %
Test CRC 8C09DACB
Copy CRC 8C09DACB
Track not present in AccurateRip database
Copy OK
None of the tracks are present in the AccurateRip database
No errors occurred
End of status report
 
Содержание индексной карты (.CUE)
REM GENRE Avant-Garde
REM DATE 2000
REM DISCID 1D0E5F04
REM COMMENT "ExactAudioCopy v0.99pb4"
PERFORMER "Ned Rothenberg"
TITLE "Ghost Stories"
FILE "01 - Arbor Vitae.wav" WAVE
TRACK 01 AUDIO
TITLE "Arbor Vitae"
PERFORMER "Ned Rothenberg"
INDEX 01 00:00:00
TRACK 02 AUDIO
TITLE "Ghost Stories"
PERFORMER "Ned Rothenberg"
INDEX 00 16:42:22
FILE "02 - Ghost Stories.wav" WAVE
INDEX 01 00:00:00
TRACK 03 AUDIO
TITLE "Duet for Alto Saxophone and Percussion"
PERFORMER "Ned Rothenberg"
INDEX 00 19:41:30
FILE "03 - Duet for Alto Saxophone and Percussion.wav" WAVE
INDEX 01 00:00:00
TRACK 04 AUDIO
TITLE "Kagami"
PERFORMER "Ned Rothenberg"
INDEX 00 18:01:60
FILE "04 - Kagami.wav" WAVE
INDEX 01 00:00:00
Собственный рип с оригинального издания.
В комплекте полный набор сканов PNG/300dpi.
Any questions -> support@pro-jazz.com. По всем вопросам пишите -> support@pro-jazz.com
08:47
138
Нет комментариев. Ваш будет первым!