Поиск

(contemporary jazz) Rick Braun - Sessions Vol.1 - 2006, APE (image + .cue), lossless

Треклист:
Rick Braun - Sessions Vol.1
Страна: USA
Жанр: contemporary jazz
Год выпуска: 2006
Формат: APE (image + .cue)
Битрейт аудио: lossless
Трэклист:
01. Cadillac Slim 06:21
02. Notorious 05:14
03. Philadelphia 07:18
04. RSVP 05:31
05. Grazing In The Grass 05:09
06. Missing In Venice 06:15
07. Love Will Find A Way 06:13
08. Groovis 05:53
09. TGIF 04:04
10. Nightwalk 06:41
11. Marty's Party 04:41
12. Coolsville 05:45
Доп. информация: label: ARTizen Music Group
Хорошо знакомые хиты Rick Braun'а без overdubs... Сессионный диск! Пока только первый том... Второй еще не вышел
Rick Braun'у помогают:
Andre Berry Bass
Luis Conte Percussion
Brian Culbertson Trombone, Wurlitzer (во как! Брайан не на piano!!!)
Richard Elliot Saxophone
Al Forman Keyboards, Organ (Hammond)
Jeff Golub Guitar (как всегда с Риком!!!)
Rayford Griffin Drums
Randy Jacobs Guitar
Dave Koz Saxophone
Jimmy Roberts Saxophone
Stan Sargeant Bass
 
EAC log
Exact Audio Copy V0.99 prebeta 4 from 23. January 2008
Отчёт EAC об извлечении, выполненном 8. апреля 2008, 23:20
Rick Braun / Sessions: Volume 1
Дисковод: Optiarc DVD RW AD-7191S Adapter: 1 ID: 4
Режим чтения : Достоверность
Использование точного потока : Да
Отключение кэша аудио : Да
Использование указателей C2 : Нет
Коррекция смещения при чтении : 6
Способность читать области Lead-in и Lead-out : Нет
Заполнение пропущенных сэмплов тишиной : Да
Удаление блоков с тишиной в начале и конце : Нет
При вычислениях CRC использовались нулевые сэмплы : Нет
Интерфейс : Встроенный Win32-интерфейс для Win NT/2000
Выходной формат : Внутренние WAV-операции
Формат сэмплов : 44.100 Гц; 16 бит; стерео
TOC извлечённого CD
Трек | Старт | Длительность | Начальный сектор | Конечный сектор
---------------------------------------------------------------------
1 | 0:00.00 | 6:21.65 | 0 | 28639
2 | 6:21.65 | 5:14.71 | 28640 | 52260
3 | 11:36.61 | 7:18.41 | 52261 | 85151
4 | 18:55.27 | 5:31.64 | 85152 | 110040
5 | 24:27.16 | 5:09.70 | 110041 | 133285
6 | 29:37.11 | 6:15.43 | 133286 | 161453
7 | 35:52.54 | 6:13.04 | 161454 | 189432
8 | 42:05.58 | 5:53.01 | 189433 | 215908
9 | 47:58.59 | 4:04.28 | 215909 | 234236
10 | 52:03.12 | 6:41.15 | 234237 | 264326
11 | 58:44.27 | 4:41.67 | 264327 | 285468
12 | 63:26.19 | 5:45.44 | 285469 | 311387
Характеристики диапазона извлечения и сообщения об ошибках
Выбранный диапазон
Имя файла G:\Torrent\Rick Braun - Sessions Volume 1\Rick Braun - Sessions Volume 1.wav
Пиковый уровень 99.7 %
Качество диапазона 100.0 %
CRC копии A64CB85D
Копирование... OK
Ошибок не произошло
AccurateRip: сводка
Трек 1 нет в базе данных
Трек 2 нет в базе данных
Трек 3 нет в базе данных
Трек 4 нет в базе данных
Трек 5 нет в базе данных
Трек 6 нет в базе данных
Трек 7 нет в базе данных
Трек 8 нет в базе данных
Трек 9 нет в базе данных
Трек 10 нет в базе данных
Трек 11 нет в базе данных
Трек 12 нет в базе данных
Ни одного трека нет в базе AccurateRip
Конец отчёта
Приватный:
Нет (DHT включён)
Размер:
417.82 Мб (438,121,029 байт) » файлов: 6
Участники:
0 раздают, 0 качают (0 участников всего)
Внешние участники:
5 раздают, 1 качают (6 участников всего) [ Обновить ]
12:34
7
Нет комментариев. Ваш будет первым!