Поиск

(Smooth Jazz, Contemporary Jazz) Christy Baron - Steppin - 2000, APE (image + .cue), lossless

Треклист:
Christy Baron - Steppin
Label: Chesky Records
Страна: UK
Жанр: Smooth Jazz, Contemporary Jazz
Год выпуска: Jun 27, 2000
Формат: APE (image + .cue)
Битрейт аудио: lossless
Продолжительность: 52:35
Трэклист:
01. Will it Go 'Round Circles (3:54)
02. Mercy Street (5:40)
03. Tomorrow Never Knows (7:05)
04. Thieves In The Temple (3:36)
05. This Must Be Love (4:14)
06. Delays On The Downtown 6 (6:28)
07. She's Not There (3:37)
08. The Shadow Of Your Smile (4:06)
09. Is Love Enough (1:23)
10. Ain't No Half Steppin' (3:13)
11. Spooky (3:16)
12. Nite And Day (6:03)
 
Доп. информация
Exact Audio Copy V0.99 prebeta 4 from 23. January 2008
Отчёт EAC об извлечении, выполненном 4. апреля 2008, 23:21
Christy Baron / steppin'
Дисковод: MV3011W ABR623E Adapter: 3 ID: 0
Режим чтения : Достоверность
Использование точного потока : Да
Отключение кэша аудио : Да
Использование указателей C2 : Нет
Коррекция смещения при чтении : 30
Способность читать области Lead-in и Lead-out : Нет
Заполнение пропущенных сэмплов тишиной : Да
Удаление блоков с тишиной в начале и конце : Нет
При вычислениях CRC использовались нулевые сэмплы : Да
Интерфейс : Установленный внешний ASPI-интерфейс
Выходной формат : Внутренние WAV-операции
Формат сэмплов : 44.100 Гц; 16 бит; стерео
TOC извлечённого CD
Трек | Старт | Длительность | Начальный сектор | Конечный сектор
---------------------------------------------------------------------
1 | 0:00.00 | 3:54.10 | 0 | 17559
2 | 3:54.10 | 5:39.72 | 17560 | 43056
3 | 9:34.07 | 7:05.00 | 43057 | 74931
4 | 16:39.07 | 3:36.00 | 74932 | 91131
5 | 20:15.07 | 4:14.00 | 91132 | 110181
6 | 24:29.07 | 6:27.70 | 110182 | 139276
7 | 30:57.02 | 3:37.13 | 139277 | 155564
8 | 34:34.15 | 4:06.00 | 155565 | 174014
9 | 38:40.15 | 1:23.00 | 174015 | 180239
10 | 40:03.15 | 3:13.00 | 180240 | 194714
11 | 43:16.15 | 3:16.00 | 194715 | 209414
12 | 46:32.15 | 6:03.15 | 209415 | 236654
Характеристики диапазона извлечения и сообщения об ошибках
Выбранный диапазон
Имя файла E:\Arcue\Christy Baron - steppin.wav
Пиковый уровень 99.1 %
Качество диапазона 100.0 %
CRC копии 28BAE5F2
Копирование... OK
Ошибок не произошло
Конец отчёта
1 -===- E:\Christy Baron - Steppin\Christy Baron - steppin.ape
Extracted successfully
Conclusion: this track is CDDA with probability 100%
Tempfile successfully deleted.
Christy Baron - I Thought About You - 1997 - http://rutracker.org/forum/viewtopic.php?t=764948
Christy Baron - Take This Journey - 2002 - http://rutracker.org/forum/viewtopic.php?t=771972
Christy Baron - Retrospective - 2004 - http://rutracker.org/forum/viewtopic.php?t=766997
Приватный:
Нет (DHT включён)
Размер:
293.90 Мб (308,173,212 байт) » файлов: 7
Участники:
0 раздают, 0 качают (0 участников всего)
Внешние участники:
--- [ Обновить ]
12:33
2
Нет комментариев. Ваш будет первым!