Поиск

(Smooth Jazz, New Age) 3rd Force (Third Force) - Discography 7 albums (1994-2005), FLAC (tracks+.cue), lossless

Треклист:

3rd Force
Дискография - 7 альбомов
(1994-2005)О исполнителе:
Группа 3rd Force, играющая Сontemporary Jazz c элементами New Age, эту спокойную, задумчивую музыку, обязана своим существованием трем людям:
  1. William Aura - его стихия клавишные, ритм-гитара и перкуссия. Человек, являющийся одним из продюсеров компании Higher Octave Music. Маэстро музыки New Age, выпустивший более пятнадцати сольных работ.
  2. Craig Dobbin - виртуозный пианист, способный заставлять музыку буквально пульсировать. Автор саундтреков к фильмам и продюсер нескольких поп- и рэп- команд.
  3. Alain Eskinasi - датский продюсер, композитор и аранжировщик. Мастер игры на африканских барабанах (учился этому мастерству шесть лет в Гамбии). Также в совершенстве владеет ритм-гитарой, перкуссией и клавишными. Именно он определяет звучание этих инструментов в творчестве группы.Объединение этих людей и сделало 3rd Force таким, каков он есть.
В разное время в качестве приглашенных музыкантов с Форсами выступали Craig Chaquico, Peter White и Brian Hughes, Acoustic Alchemy, Shahin Shahida из Shahin & Sepehr, а также кроме перечисленных гитаристов и саксофонисты: Paul Taylor, Tom Scott, Jimmy Sommers, и Eric Darius (их творчество в той или иной мере представлено на трекере, и достойно отдельного прослушивания).Официальный сайт 3rd ForceАльбомы:
 
1994 – 3rd Force
Треклист:
01. 3rd Force - You Know My Heart (4:51)
02. 3rd Force - We Should Be Together (4:19)
03. 3rd Force - Ready for Love (4:34)
04. 3rd Force - The Gift (4:37)
05. 3rd Force - Love's the Reason (4:43)
06. 3rd Force - Full Circle (4:47)
07. 3rd Force - Where It All Begins (4:46)
08. 3rd Force - 3Rd Force (Prelude) (0:27)
09. 3rd Force - 3Rd Force (4:14)
10. 3rd Force - Between Friends (4:06)
11. 3rd Force - Towards the Light (4:34)
 
Лог извлечения EAC
Exact Audio Copy V0.99 prebeta 4 from 23. January 2008
EAC extraction logfile from 10. April 2008, 23:06
3rd Force / 3rd Force
Used drive : PIONEER DVD-RW DVR-111D Adapter: 2 ID: 1
Read mode : Secure
Utilize accurate stream : Yes
Defeat audio cache : Yes
Make use of C2 pointers : No
Read offset correction : 48
Overread into Lead-In and Lead-Out : No
Fill up missing offset samples with silence : Yes
Delete leading and trailing silent blocks : No
Null samples used in CRC calculations : Yes
Used interface : Native Win32 interface for Win NT & 2000
Gap handling : Appended to previous track
Used output format : User Defined Encoder
Selected bitrate : 128 kBit/s
Quality : High
Add ID3 tag : No
Command line compressor : C:\Program Files\FLAC\flac.exe
Additional command line options : -8 -V -T "ARTIST=%a" -T "TITLE=%t" -T "ALBUM=%g" -T "DATE=%y" -T "TRACKNUMBER=%n" -T "GENRE=%m" -T "COMMENT=EAC FLAC -8" %s
Use compression offset : 2257
TOC of the extracted CD
Track | Start | Length | Start sector | End sector
---------------------------------------------------------
1 | 0:00.00 | 4:51.42 | 0 | 21866
2 | 4:51.42 | 4:19.08 | 21867 | 41299
3 | 9:10.50 | 4:34.22 | 41300 | 61871
4 | 13:44.72 | 4:36.48 | 61872 | 82619
5 | 18:21.45 | 4:43.10 | 82620 | 103854
6 | 23:04.55 | 4:46.47 | 103855 | 125351
7 | 27:51.27 | 4:46.00 | 125352 | 146801
8 | 32:37.27 | 0:26.68 | 146802 | 148819
9 | 33:04.20 | 4:14.07 | 148820 | 167876
10 | 37:18.27 | 4:06.20 | 167877 | 186346
11 | 41:24.47 | 4:33.53 | 186347 | 206874
Track 1
Filename F:\3rd Force Lossless\3rd Force - 1994 - 3rd Force\01 - You Know My Heart.wav
Pre-gap length 0:00:02.00
Peak level 98.4 %
Track quality 99.9 %
Test CRC B6D2DBFC
Copy CRC B6D2DBFC
Cannot be verified as accurate (confidence 1) [3682B846], AccurateRip returned [C16690AE]
Copy OK
Track 2
Filename F:\3rd Force Lossless\3rd Force - 1994 - 3rd Force\02 - We Should Be Together.wav
Peak level 98.4 %
Track quality 100.0 %
Test CRC A30E1CC3
Copy CRC A30E1CC3
Cannot be verified as accurate (confidence 1) [8D845CA3], AccurateRip returned [F415067B]
Copy OK
Track 3
Filename F:\3rd Force Lossless\3rd Force - 1994 - 3rd Force\03 - Ready For Love.wav
Pre-gap length 0:00:02.20
Peak level 98.3 %
Track quality 99.9 %
Test CRC F159D40E
Copy CRC F159D40E
Cannot be verified as accurate (confidence 1) [27B49A1E], AccurateRip returned [09561A7E]
Copy OK
Track 4
Filename F:\3rd Force Lossless\3rd Force - 1994 - 3rd Force\04 - The Gift.wav
Pre-gap length 0:00:01.93
Peak level 98.3 %
Track quality 100.0 %
Test CRC F4F1D92C
Copy CRC F4F1D92C
Cannot be verified as accurate (confidence 1) [5C16459E], AccurateRip returned [FB29F1D6]
Copy OK
Track 5
Filename F:\3rd Force Lossless\3rd Force - 1994 - 3rd Force\05 - Love's The Reason.wav
Pre-gap length 0:00:01.46
Peak level 92.1 %
Track quality 100.0 %
Test CRC 5DE63B48
Copy CRC 5DE63B48
Cannot be verified as accurate (confidence 1) [B4A01B5E], AccurateRip returned [0ECF8736]
Copy OK
Track 6
Filename F:\3rd Force Lossless\3rd Force - 1994 - 3rd Force\06 - Full Circle.wav
Peak level 93.9 %
Track quality 100.0 %
Test CRC 75FE24E2
Copy CRC 75FE24E2
Cannot be verified as accurate (confidence 1) [1523E49D], AccurateRip returned [526ACB0D]
Copy OK
Track 7
Filename F:\3rd Force Lossless\3rd Force - 1994 - 3rd Force\07 - Where It All Begins.wav
Pre-gap length 0:00:02.06
Peak level 88.5 %
Track quality 100.0 %
Test CRC 41E5A3ED
Copy CRC 41E5A3ED
Cannot be verified as accurate (confidence 1) [42734253], AccurateRip returned [2B12358B]
Copy OK
Track 8
Filename F:\3rd Force Lossless\3rd Force - 1994 - 3rd Force\08 - 3rd Force (prelude).wav
Pre-gap length 0:00:03.16
Peak level 16.1 %
Track quality 99.6 %
Test CRC A3935D9D
Copy CRC A3935D9D
Cannot be verified as accurate (confidence 1) [05E31062], AccurateRip returned [8549911C]
Copy OK
Track 9
Filename F:\3rd Force Lossless\3rd Force - 1994 - 3rd Force\09 - 3rd Force.wav
Peak level 82.1 %
Track quality 100.0 %
Test CRC E9EFAB26
Copy CRC E9EFAB26
Cannot be verified as accurate (confidence 1) [CC302D12], AccurateRip returned [F7FFB032]
Copy OK
Track 10
Filename F:\3rd Force Lossless\3rd Force - 1994 - 3rd Force\10 - Between Friends.wav
Pre-gap length 0:00:02.22
Peak level 98.1 %
Track quality 100.0 %
Test CRC 44661431
Copy CRC 44661431
Cannot be verified as accurate (confidence 1) [366BD7AB], AccurateRip returned [744C5FF3]
Copy OK
Track 11
Filename F:\3rd Force Lossless\3rd Force - 1994 - 3rd Force\11 - Towards The Light.wav
Peak level 72.1 %
Track quality 100.0 %
Test CRC 5757D1EC
Copy CRC 5757D1EC
Cannot be verified as accurate (confidence 1) [88777611], AccurateRip returned [288F7107]
Copy OK
No tracks could be verified as accurate
You may have a different pressing from the one(s) in the database
No errors occurred
End of status report
 
1995 – Force Of Nature
Треклист:
01. 3rd Force - Forever Yours (3:59)
02. 3rd Force - Listen To Your Heart (5:01)
03. 3rd Force - Sundancer (4:34)
04. 3rd Force - Here Comes The Night (intro) (0:59)
05. 3rd Force - Here Comes The Night (4:59)
06. 3rd Force - Behind Closed Eyes (4:08)
07. 3rd Force - Force Of Nature (5:28)
08. 3rd Force - Vital Connection (4:27)
09. 3rd Force - 'Til We Meet Again (5:14)
10. 3rd Force - 3rd Force Party (5:23)
11. 3rd Force - Coming Home (4:15)
 
Лог извлечения EAC
Exact Audio Copy V0.99 prebeta 4 from 23. January 2008
EAC extraction logfile from 10. April 2008, 23:47
3rd Force / Force Of Nature
Used drive : PIONEER DVD-RW DVR-111D Adapter: 2 ID: 1
Read mode : Secure
Utilize accurate stream : Yes
Defeat audio cache : Yes
Make use of C2 pointers : No
Read offset correction : 48
Overread into Lead-In and Lead-Out : No
Fill up missing offset samples with silence : Yes
Delete leading and trailing silent blocks : No
Null samples used in CRC calculations : Yes
Used interface : Native Win32 interface for Win NT & 2000
Gap handling : Appended to previous track
Used output format : User Defined Encoder
Selected bitrate : 128 kBit/s
Quality : High
Add ID3 tag : No
Command line compressor : C:\Program Files\FLAC\flac.exe
Additional command line options : -8 -V -T "ARTIST=%a" -T "TITLE=%t" -T "ALBUM=%g" -T "DATE=%y" -T "TRACKNUMBER=%n" -T "GENRE=%m" -T "COMMENT=EAC FLAC -8" %s
Use compression offset : 2257
TOC of the extracted CD
Track | Start | Length | Start sector | End sector
---------------------------------------------------------
1 | 0:00.00 | 3:59.25 | 0 | 17949
2 | 3:59.25 | 5:01.25 | 17950 | 40549
3 | 9:00.50 | 4:33.55 | 40550 | 61079
4 | 13:34.30 | 0:59.20 | 61080 | 65524
5 | 14:33.50 | 4:59.20 | 65525 | 87969
6 | 19:32.70 | 4:08.37 | 87970 | 106606
7 | 23:41.32 | 5:28.35 | 106607 | 131241
8 | 29:09.67 | 4:27.08 | 131242 | 151274
9 | 33:37.00 | 5:13.60 | 151275 | 174809
10 | 38:50.60 | 5:22.47 | 174810 | 199006
11 | 44:13.32 | 4:14.38 | 199007 | 218094
Track 1
Filename F:\3rd Force Lossless\3rd Force - 1995 - Force Of Nature\01 - Forever Yours.wav
Pre-gap length 0:00:02.00
Peak level 97.9 %
Track quality 100.0 %
Test CRC 29CF550C
Copy CRC 29CF550C
Cannot be verified as accurate (confidence 2) [422C0A03], AccurateRip returned [7ED34790]
Copy OK
Track 2
Filename F:\3rd Force Lossless\3rd Force - 1995 - Force Of Nature\02 - Listen To Your Heart.wav
Peak level 97.9 %
Track quality 100.0 %
Test CRC 113301BB
Copy CRC 113301BB
Cannot be verified as accurate (confidence 2) [17810FAB], AccurateRip returned [5BE28456]
Copy OK
Track 3
Filename F:\3rd Force Lossless\3rd Force - 1995 - Force Of Nature\03 - Sundancer.wav
Peak level 97.9 %
Track quality 100.0 %
Test CRC 5F63CA69
Copy CRC 5F63CA69
Cannot be verified as accurate (confidence 2) [C41F0CC2], AccurateRip returned [3D46DE9A]
Copy OK
Track 4
Filename F:\3rd Force Lossless\3rd Force - 1995 - Force Of Nature\04 - Here Comes The Night (intro).wav
Peak level 97.9 %
Track quality 100.0 %
Test CRC AE2AE989
Copy CRC AE2AE989
Cannot be verified as accurate (confidence 2) [6F186ED6], AccurateRip returned [DA48541E]
Copy OK
Track 5
Filename F:\3rd Force Lossless\3rd Force - 1995 - Force Of Nature\05 - Here Comes The Night.wav
Peak level 97.9 %
Track quality 100.0 %
Test CRC 207F6BA5
Copy CRC 207F6BA5
Cannot be verified as accurate (confidence 2) [C7C43A8F], AccurateRip returned [CA32496D]
Copy OK
Track 6
Filename F:\3rd Force Lossless\3rd Force - 1995 - Force Of Nature\06 - Behind Closed Eyes.wav
Pre-gap length 0:00:04.70
Peak level 97.9 %
Track quality 100.0 %
Test CRC 5049A561
Copy CRC 5049A561
Cannot be verified as accurate (confidence 2) [660E000F], AccurateRip returned [777DCE27]
Copy OK
Track 7
Filename F:\3rd Force Lossless\3rd Force - 1995 - Force Of Nature\07 - Force Of Nature.wav
Pre-gap length 0:00:01.82
Peak level 97.9 %
Track quality 100.0 %
Test CRC CE180EC1
Copy CRC CE180EC1
Cannot be verified as accurate (confidence 2) [5011E343], AccurateRip returned [F7CCA833]
Copy OK
Track 8
Filename F:\3rd Force Lossless\3rd Force - 1995 - Force Of Nature\08 - Vital Connection.wav
Pre-gap length 0:00:02.13
Peak level 97.9 %
Track quality 100.0 %
Test CRC D0385837
Copy CRC D0385837
Cannot be verified as accurate (confidence 2) [3A486A23], AccurateRip returned [8DE22B7B]
Copy OK
Track 9
Filename F:\3rd Force Lossless\3rd Force - 1995 - Force Of Nature\09 - 'Til We Meet Again.wav
Peak level 97.9 %
Track quality 99.9 %
Test CRC AA046488
Copy CRC AA046488
Cannot be verified as accurate (confidence 2) [A1925B8C], AccurateRip returned [76C0C0DD]
Copy OK
Track 10
Filename F:\3rd Force Lossless\3rd Force - 1995 - Force Of Nature\10 - 3rd Force Party.wav
Pre-gap length 0:00:01.93
Peak level 97.9 %
Track quality 100.0 %
Test CRC 07F81280
Copy CRC 07F81280
Cannot be verified as accurate (confidence 2) [8CD739B4], AccurateRip returned [A9309E7A]
Copy OK
Track 11
Filename F:\3rd Force Lossless\3rd Force - 1995 - Force Of Nature\11 - Coming Home.wav
Pre-gap length 0:00:02.20
Peak level 97.9 %
Track quality 100.0 %
Test CRC 5473D667
Copy CRC 5473D667
Cannot be verified as accurate (confidence 2) [5EBFFFE2], AccurateRip returned [4BEBE2B7]
Copy OK
No tracks could be verified as accurate
You may have a different pressing from the one(s) in the database
No errors occurred
End of status report
 
1997 – Vital Force
Треклист:
01. 3rd Force - In The Full Moon Light (4:42)
02. 3rd Force - No Doubt (4:25)
03. 3rd Force - You Gotta Be Real (5:55)
04. 3rd Force - Give It Up (4:15)
05. 3rd Force - Lift Me Higher (4:39)
06. 3rd Force - Echoes Of A Dream (6:05)
07. 3rd Force - Set Yourself Free (5:07)
08. 3rd Force - She Whispered To Me (4:43)
09. 3rd Force - I've Got To Know (3:48)
10. 3rd Force - Smiles All Around (4:15)
11. 3rd Force - Thru The Shadows (4:51)
 
Лог извлечения EAC
Exact Audio Copy V0.99 prebeta 4 from 23. January 2008
EAC extraction logfile from 10. April 2008, 21:16
3rd Force / Vital Force
Used drive : PIONEER DVD-RW DVR-111D Adapter: 2 ID: 1
Read mode : Secure
Utilize accurate stream : Yes
Defeat audio cache : Yes
Make use of C2 pointers : No
Read offset correction : 48
Overread into Lead-In and Lead-Out : No
Fill up missing offset samples with silence : Yes
Delete leading and trailing silent blocks : No
Null samples used in CRC calculations : Yes
Used interface : Native Win32 interface for Win NT & 2000
Gap handling : Appended to previous track
Used output format : User Defined Encoder
Selected bitrate : 128 kBit/s
Quality : High
Add ID3 tag : No
Command line compressor : C:\Program Files\FLAC\flac.exe
Additional command line options : -8 -V -T "ARTIST=%a" -T "TITLE=%t" -T "ALBUM=%g" -T "DATE=%y" -T "TRACKNUMBER=%n" -T "GENRE=%m" -T "COMMENT=EAC FLAC -8" %s
Use compression offset : 2257
TOC of the extracted CD
Track | Start | Length | Start sector | End sector
---------------------------------------------------------
1 | 0:00.00 | 4:42.52 | 0 | 21201
2 | 4:42.52 | 4:25.08 | 21202 | 41084
3 | 9:07.60 | 5:54.65 | 41085 | 67699
4 | 15:02.50 | 4:14.60 | 67700 | 86809
5 | 19:17.35 | 4:38.52 | 86810 | 107711
6 | 23:56.12 | 6:04.68 | 107712 | 135079
7 | 30:01.05 | 5:06.55 | 135080 | 158084
8 | 35:07.60 | 4:42.65 | 158085 | 179299
9 | 39:50.50 | 3:48.37 | 179300 | 196436
10 | 43:39.12 | 4:14.38 | 196437 | 215524
11 | 47:53.50 | 4:50.62 | 215525 | 237336
Track 1
Filename F:\3rd Force Lossless\3rd Force - 1997 - Vital Force\01 - In The Full Moon Light.wav
Pre-gap length 0:00:02.00
Peak level 98.8 %
Track quality 100.0 %
Test CRC 32EF5E2E
Copy CRC 32EF5E2E
Track not present in AccurateRip database
Copy OK
Track 2
Filename F:\3rd Force Lossless\3rd Force - 1997 - Vital Force\02 - No Doubt.wav
Peak level 98.8 %
Track quality 100.0 %
Test CRC BC805BE8
Copy CRC BC805BE8
Track not present in AccurateRip database
Copy OK
Track 3
Filename F:\3rd Force Lossless\3rd Force - 1997 - Vital Force\03 - You Gotta Be Real.wav
Peak level 98.8 %
Track quality 100.0 %
Test CRC EDF9A9E9
Copy CRC EDF9A9E9
Track not present in AccurateRip database
Copy OK
Track 4
Filename F:\3rd Force Lossless\3rd Force - 1997 - Vital Force\04 - Give It Up.wav
Peak level 96.6 %
Track quality 100.0 %
Test CRC 7D355BAD
Copy CRC 7D355BAD
Track not present in AccurateRip database
Copy OK
Track 5
Filename F:\3rd Force Lossless\3rd Force - 1997 - Vital Force\05 - Lift Me Higher.wav
Pre-gap length 0:00:02.57
Peak level 98.8 %
Track quality 100.0 %
Test CRC D913B5C8
Copy CRC D913B5C8
Track not present in AccurateRip database
Copy OK
Track 6
Filename F:\3rd Force Lossless\3rd Force - 1997 - Vital Force\06 - Echoes Of A Dream.wav
Peak level 98.8 %
Track quality 99.9 %
Test CRC BDB7B41A
Copy CRC BDB7B41A
Track not present in AccurateRip database
Copy OK
Track 7
Filename F:\3rd Force Lossless\3rd Force - 1997 - Vital Force\07 - Set Yourself Free.wav
Peak level 90.1 %
Track quality 100.0 %
Test CRC B849C3C7
Copy CRC B849C3C7
Track not present in AccurateRip database
Copy OK
Track 8
Filename F:\3rd Force Lossless\3rd Force - 1997 - Vital Force\08 - She Whispered To Me.wav
Pre-gap length 0:00:02.86
Peak level 98.8 %
Track quality 100.0 %
Test CRC 845E136A
Copy CRC 845E136A
Track not present in AccurateRip database
Copy OK
Track 9
Filename F:\3rd Force Lossless\3rd Force - 1997 - Vital Force\09 - I've Got To Know.wav
Pre-gap length 0:00:02.30
Peak level 99.8 %
Track quality 100.0 %
Test CRC 360612F5
Copy CRC 360612F5
Track not present in AccurateRip database
Copy OK
Track 10
Filename F:\3rd Force Lossless\3rd Force - 1997 - Vital Force\10 - Smiles All Around.wav
Pre-gap length 0:00:01.66
Peak level 97.5 %
Track quality 100.0 %
Test CRC A87E0DA8
Copy CRC A87E0DA8
Track not present in AccurateRip database
Copy OK
Track 11
Filename F:\3rd Force Lossless\3rd Force - 1997 - Vital Force\11 - Thru The Shadows.wav
Peak level 98.8 %
Track quality 100.0 %
Test CRC 8E1371EF
Copy CRC 8E1371EF
Track not present in AccurateRip database
Copy OK
None of the tracks are present in the AccurateRip database
No errors occurred
End of status report
 
1999 - Force Field
Треклист:
01. 3rd Force - Revelation Of The Heart (5:10)
02. 3rd Force - Something Special (4:19)
03. 3rd Force - The Closer You Get (4:13)
04. 3rd Force - Give It All You Got (5:40)
05. 3rd Force - Straight Up (5:40)
06. 3rd Force - Secret Sauce (4:05)
07. 3rd Force - Bridge Of Dreams (4:18)
08. 3rd Force - Step Into My Life (5:13)
09. 3rd Force - 7th Heaven (4:25)
10. 3rd Force - Once In A Lifetime (4:44)
 
Лог извлечения EAC
Exact Audio Copy V0.99 prebeta 4 from 23. January 2008
EAC extraction logfile from 10. April 2008, 22:35
3rd Force / Force Field
Used drive : PIONEER DVD-RW DVR-111D Adapter: 2 ID: 1
Read mode : Secure
Utilize accurate stream : Yes
Defeat audio cache : Yes
Make use of C2 pointers : No
Read offset correction : 48
Overread into Lead-In and Lead-Out : No
Fill up missing offset samples with silence : Yes
Delete leading and trailing silent blocks : No
Null samples used in CRC calculations : Yes
Used interface : Native Win32 interface for Win NT & 2000
Gap handling : Appended to previous track
Used output format : User Defined Encoder
Selected bitrate : 128 kBit/s
Quality : High
Add ID3 tag : No
Command line compressor : C:\Program Files\FLAC\flac.exe
Additional command line options : -8 -V -T "ARTIST=%a" -T "TITLE=%t" -T "ALBUM=%g" -T "DATE=%y" -T "TRACKNUMBER=%n" -T "GENRE=%m" -T "COMMENT=EAC FLAC -8" %s
Use compression offset : 2257
TOC of the extracted CD
Track | Start | Length | Start sector | End sector
---------------------------------------------------------
1 | 0:00.00 | 5:10.45 | 0 | 23294
2 | 5:10.45 | 4:19.32 | 23295 | 42751
3 | 9:30.02 | 4:12.73 | 42752 | 61724
4 | 13:43.00 | 5:39.70 | 61725 | 87219
5 | 19:22.70 | 5:39.40 | 87220 | 112684
6 | 25:02.35 | 4:04.67 | 112685 | 131051
7 | 29:07.27 | 4:18.30 | 131052 | 150431
8 | 33:25.57 | 5:12.58 | 150432 | 173889
9 | 38:38.40 | 4:24.42 | 173890 | 193731
10 | 43:03.07 | 4:43.38 | 193732 | 214994
Track 1
Filename F:\3rd Force Lossless\3rd Force - 1999 - Force Field\01 - Revelation Of The Heart.wav
Pre-gap length 0:00:02.00
Peak level 98.5 %
Track quality 100.0 %
Test CRC 45A8B3B7
Copy CRC 45A8B3B7
Accurately ripped (confidence 9) [9E3C3FF1]
Copy OK
Track 2
Filename F:\3rd Force Lossless\3rd Force - 1999 - Force Field\02 - Something Special.wav
Peak level 93.2 %
Track quality 100.0 %
Test CRC 98A12C12
Copy CRC 98A12C12
Accurately ripped (confidence 9) [0CE63B61]
Copy OK
Track 3
Filename F:\3rd Force Lossless\3rd Force - 1999 - Force Field\03 - The Closer You Get.wav
Pre-gap length 0:00:03.26
Peak level 94.3 %
Track quality 100.0 %
Test CRC D6E4A1E8
Copy CRC D6E4A1E8
Accurately ripped (confidence 9) [A159FC59]
Copy OK
Track 4
Filename F:\3rd Force Lossless\3rd Force - 1999 - Force Field\04 - Give It All You Got.wav
Pre-gap length 0:00:02.86
Peak level 98.5 %
Track quality 100.0 %
Test CRC AACC3244
Copy CRC AACC3244
Accurately ripped (confidence 9) [F6905B6C]
Copy OK
Track 5
Filename F:\3rd Force Lossless\3rd Force - 1999 - Force Field\05 - Straight Up.wav
Peak level 98.5 %
Track quality 100.0 %
Test CRC 9EC231EC
Copy CRC 9EC231EC
Accurately ripped (confidence 9) [E66FC7EB]
Copy OK
Track 6
Filename F:\3rd Force Lossless\3rd Force - 1999 - Force Field\06 - Secret Sauce.wav
Peak level 94.3 %
Track quality 100.0 %
Test CRC C536E030
Copy CRC C536E030
Accurately ripped (confidence 9) [D92DEED8]
Copy OK
Track 7
Filename F:\3rd Force Lossless\3rd Force - 1999 - Force Field\07 - Bridge Of Dreams.wav
Peak level 94.3 %
Track quality 100.0 %
Test CRC DB622EAC
Copy CRC DB622EAC
Accurately ripped (confidence 9) [3200F3E9]
Copy OK
Track 8
Filename F:\3rd Force Lossless\3rd Force - 1999 - Force Field\08 - Step Into My Life.wav
Pre-gap length 0:00:01.09
Peak level 94.3 %
Track quality 100.0 %
Test CRC A4B571C1
Copy CRC A4B571C1
Accurately ripped (confidence 9) [69A2336A]
Copy OK
Track 9
Filename F:\3rd Force Lossless\3rd Force - 1999 - Force Field\09 - 7th Heaven.wav
Pre-gap length 0:00:02.13
Peak level 98.5 %
Track quality 100.0 %
Test CRC B73B7288
Copy CRC B73B7288
Accurately ripped (confidence 9) [0E120C4D]
Copy OK
Track 10
Filename F:\3rd Force Lossless\3rd Force - 1999 - Force Field\10 - Once In A Lifetime.wav
Peak level 98.5 %
Track quality 100.0 %
Test CRC 63E3DB97
Copy CRC 63E3DB97
Accurately ripped (confidence 9) [AC30E5B9]
Copy OK
All tracks accurately ripped
No errors occurred
End of status report
 
2000 – Collective Force
Треклист:
01. 3rd Force - Dance With Me (4:26)
02. 3rd Force - Sweet Surrender (4:46)
03. 3rd Force - Bridge of Dreams (4:19)
04. 3rd Force - In The Full Moon Light (4:43)
05. 3rd Force - You Gotta Be Real (5:40)
06. 3rd Force - You Know My Heart (4:53)
07. 3rd Force - Something Special (4:19)
08. 3rd Force - Coming Home (4:02)
09. 3rd Force - Listen To Your Heart (4:10)
10. 3rd Force - Here Comes The Night (5:52)
11. 3rd Force - Revelation Of The Heart (5:08)
12. 3rd Force - No Doubt (4:23)
13. 3rd Force - Give It All You Got (5:36)
14. 3rd Force - The Gift (4:28)
15. 3rd Force - Lift Me Higher (4:38)
 
Лог извлечения EAC
EAC extraction logfile from 11. April 2008, 7:51 for CD
3rd Force / Collective Force
Used drive : PLEXTOR DVDR PX-760A Adapter: 1 ID: 0
Read mode : Secure with NO C2, accurate stream, disable cache
Read offset correction : 30
Overread into Lead-In and Lead-Out : Yes
Used output format : C:\Program Files\FLAC\flac.exe (User Defined Encoder)
320 kBit/s
Additional command line options : -8 -V -T "ARTIST=%a" -T "TITLE=%t" -T "ALBUM=%g" -T "DATE=%y" -T "TRACKNUMBER=%n" -T "GENRE=%m" -T "COMMENT=EAC FLAC -8" %s
Other options :
Fill up missing offset samples with silence : Yes
Delete leading and trailing silent blocks : No
Native Win32 interface for Win NT & 2000
Track 1
Filename C:\APE\3D Force\3rd Force - 2000 - Collective Force\01 - Dance With Me.wav
Pre-gap length 0:00:02.00
Peak level 100.0 %
Track quality 100.0 %
Test CRC 60493BFD
Copy CRC 60493BFD
Copy OK
Track 2
Filename C:\APE\3D Force\3rd Force - 2000 - Collective Force\02 - Sweet Surrender.wav
Pre-gap length 0:00:04.24
Peak level 100.0 %
Track quality 100.0 %
Test CRC C73DE808
Copy CRC C73DE808
Copy OK
Track 3
Filename C:\APE\3D Force\3rd Force - 2000 - Collective Force\03 - Bridge of Dreams.wav
Pre-gap length 0:00:02.18
Peak level 100.0 %
Track quality 100.0 %
Test CRC E8F7CEA1
Copy CRC E8F7CEA1
Copy OK
Track 4
Filename C:\APE\3D Force\3rd Force - 2000 - Collective Force\04 - In The Full Moon Light.wav
Pre-gap length 0:00:02.34
Peak level 99.2 %
Track quality 100.0 %
Test CRC 30424055
Copy CRC 30424055
Copy OK
Track 5
Filename C:\APE\3D Force\3rd Force - 2000 - Collective Force\05 - You Gotta Be Real.wav
Pre-gap length 0:00:01.40
Peak level 87.9 %
Track quality 99.9 %
Test CRC 6D3C5E69
Copy CRC 6D3C5E69
Copy OK
Track 6
Filename C:\APE\3D Force\3rd Force - 2000 - Collective Force\06 - You Know My Heart.wav
Peak level 100.0 %
Track quality 100.0 %
Test CRC 10B9418A
Copy CRC 10B9418A
Copy OK
Track 7
Filename C:\APE\3D Force\3rd Force - 2000 - Collective Force\07 - Something Special.wav
Pre-gap length 0:00:01.72
Peak level 99.9 %
Track quality 100.0 %
Test CRC 0A13AF33
Copy CRC 0A13AF33
Copy OK
Track 8
Filename C:\APE\3D Force\3rd Force - 2000 - Collective Force\08 - Coming Home.wav
Pre-gap length 0:00:04.29
Peak level 91.0 %
Track quality 100.0 %
Test CRC 37C239DF
Copy CRC 37C239DF
Copy OK
Track 9
Filename C:\APE\3D Force\3rd Force - 2000 - Collective Force\09 - Listen To Your Heart.wav
Peak level 89.2 %
Track quality 99.9 %
Test CRC 3CB187DC
Copy CRC 3CB187DC
Copy OK
Track 10
Filename C:\APE\3D Force\3rd Force - 2000 - Collective Force\10 - Here Comes The Night.wav
Peak level 92.0 %
Track quality 100.0 %
Test CRC 66E5DE8D
Copy CRC 66E5DE8D
Copy OK
Track 11
Filename C:\APE\3D Force\3rd Force - 2000 - Collective Force\11 - Revelation Of The Heart.wav
Pre-gap length 0:00:00.03
Peak level 96.7 %
Track quality 100.0 %
Test CRC 4833425F
Copy CRC 4833425F
Copy OK
Track 12
Filename C:\APE\3D Force\3rd Force - 2000 - Collective Force\12 - No Doubt.wav
Pre-gap length 0:00:00.12
Peak level 86.9 %
Track quality 100.0 %
Test CRC 28B2F68D
Copy CRC 28B2F68D
Copy OK
Track 13
Filename C:\APE\3D Force\3rd Force - 2000 - Collective Force\13 - Give It All You Got.wav
Pre-gap length 0:00:02.18
Peak level 92.7 %
Track quality 100.0 %
Test CRC 17AF8DCA
Copy CRC 17AF8DCA
Copy OK
Track 14
Filename C:\APE\3D Force\3rd Force - 2000 - Collective Force\14 - The Gift.wav
Pre-gap length 0:00:01.15
Peak level 98.7 %
Track quality 99.9 %
Test CRC 9A812B56
Copy CRC 9A812B56
Copy OK
Track 15
Filename C:\APE\3D Force\3rd Force - 2000 - Collective Force\15 - Lift Me Higher.wav
Pre-gap length 0:00:02.56
Peak level 97.5 %
Track quality 100.0 %
Test CRC 1C03521A
Copy CRC 1C03521A
Copy OK
No errors occured
End of status report
 
2002 – Gentle Force
Треклист:
01. 3rd Force - Young Again (4:45)
02. 3rd Force - I Believe In You (5:31)
03. 3rd Force - Grateful For Love (5:37)
04. 3rd Force - Follow Your Dream (5:21)
05. 3rd Force - Under Your Spell (5:28)
06. 3rd Force - Ready Or Not (4:54)
07. 3rd Force - Aquamarine (6:15)
08. 3rd Force - Hands Across The Ocean (5:37)
09. 3rd Force - Journey To Now (8:30)
10. 3rd Force - Straight From The Heart (6:18)
 
Лог извлечения EAC
Exact Audio Copy V0.99 prebeta 4 from 23. January 2008
EAC extraction logfile from 10. April 2008, 22:04
3rd Force / Gentle Force
Used drive : PIONEER DVD-RW DVR-111D Adapter: 2 ID: 1
Read mode : Secure
Utilize accurate stream : Yes
Defeat audio cache : Yes
Make use of C2 pointers : No
Read offset correction : 48
Overread into Lead-In and Lead-Out : No
Fill up missing offset samples with silence : Yes
Delete leading and trailing silent blocks : No
Null samples used in CRC calculations : Yes
Used interface : Native Win32 interface for Win NT & 2000
Gap handling : Appended to previous track
Used output format : User Defined Encoder
Selected bitrate : 128 kBit/s
Quality : High
Add ID3 tag : No
Command line compressor : C:\Program Files\FLAC\flac.exe
Additional command line options : -8 -V -T "ARTIST=%a" -T "TITLE=%t" -T "ALBUM=%g" -T "DATE=%y" -T "TRACKNUMBER=%n" -T "GENRE=%m" -T "COMMENT=EAC FLAC -8" %s
Use compression offset : 2257
TOC of the extracted CD
Track | Start | Length | Start sector | End sector
---------------------------------------------------------
1 | 0:00.00 | 4:45.00 | 0 | 21374
2 | 4:45.00 | 5:31.65 | 21375 | 46264
3 | 10:16.65 | 5:37.35 | 46265 | 71574
4 | 15:54.25 | 5:21.15 | 71575 | 95664
5 | 21:15.40 | 5:28.22 | 95665 | 120286
6 | 26:43.62 | 4:54.08 | 120287 | 142344
7 | 31:37.70 | 6:15.32 | 142345 | 170501
8 | 37:53.27 | 5:37.35 | 170502 | 195811
9 | 43:30.62 | 8:30.08 | 195812 | 234069
10 | 52:00.70 | 6:18.25 | 234070 | 262444
Track 1
Filename F:\3rd Force Lossless\3rd Force - 2002 - Gentle Force\01 - Young Again.wav
Pre-gap length 0:00:02.00
Peak level 86.1 %
Track quality 100.0 %
Test CRC BF2F6E6C
Copy CRC BF2F6E6C
Accurately ripped (confidence 3) [352EE40F]
Copy OK
Track 2
Filename F:\3rd Force Lossless\3rd Force - 2002 - Gentle Force\02 - I Believe In You.wav
Peak level 91.1 %
Track quality 100.0 %
Test CRC FAF1930C
Copy CRC FAF1930C
Accurately ripped (confidence 3) [326D3674]
Copy OK
Track 3
Filename F:\3rd Force Lossless\3rd Force - 2002 - Gentle Force\03 - Grateful For Love.wav
Pre-gap length 0:00:01.44
Peak level 89.6 %
Track quality 100.0 %
Test CRC 71A4CA5C
Copy CRC 71A4CA5C
Accurately ripped (confidence 3) [099341A1]
Copy OK
Track 4
Filename F:\3rd Force Lossless\3rd Force - 2002 - Gentle Force\04 - Follow Your Dream.wav
Pre-gap length 0:00:01.10
Peak level 92.9 %
Track quality 100.0 %
Test CRC 9DC868F4
Copy CRC 9DC868F4
Accurately ripped (confidence 3) [689DA16D]
Copy OK
Track 5
Filename F:\3rd Force Lossless\3rd Force - 2002 - Gentle Force\05 - Under Your Spell.wav
Peak level 88.7 %
Track quality 100.0 %
Test CRC 25A3705E
Copy CRC 25A3705E
Accurately ripped (confidence 3) [2529D8FB]
Copy OK
Track 6
Filename F:\3rd Force Lossless\3rd Force - 2002 - Gentle Force\06 - Ready Or Not.wav
Pre-gap length 0:00:02.29
Peak level 97.7 %
Track quality 100.0 %
Test CRC E1E9AAE7
Copy CRC E1E9AAE7
Accurately ripped (confidence 3) [46845DA0]
Copy OK
Track 7
Filename F:\3rd Force Lossless\3rd Force - 2002 - Gentle Force\07 - Aquamarine.wav
Peak level 94.4 %
Track quality 100.0 %
Test CRC 9A706C75
Copy CRC 9A706C75
Accurately ripped (confidence 3) [F181327F]
Copy OK
Track 8
Filename F:\3rd Force Lossless\3rd Force - 2002 - Gentle Force\08 - Hands Across The Ocean.wav
Pre-gap length 0:00:01.09
Peak level 97.7 %
Track quality 100.0 %
Test CRC 59381093
Copy CRC 59381093
Accurately ripped (confidence 3) [0AFE4FB1]
Copy OK
Track 9
Filename F:\3rd Force Lossless\3rd Force - 2002 - Gentle Force\09 - Journey To Now.wav
Pre-gap length 0:00:01.26
Peak level 90.7 %
Track quality 100.0 %
Test CRC 8C452325
Copy CRC 8C452325
Accurately ripped (confidence 3) [164E00A9]
Copy OK
Track 10
Filename F:\3rd Force Lossless\3rd Force - 2002 - Gentle Force\10 - Straight From The Heart.wav
Peak level 93.0 %
Track quality 100.0 %
Test CRC AFBD37E8
Copy CRC AFBD37E8
Accurately ripped (confidence 3) [D5982DA9]
Copy OK
All tracks accurately ripped
No errors occurred
End of status report
 
2005 – Driving Force
Треклист:
01. 3rd Force - Believe In Me (5:19)
02. 3rd Force - Ask Me Why (4:27)
03. 3rd Force - Real Thing (4:30)
04. 3rd Force - You Got It (4:34)
05. 3rd Force - Get with It (4:20)
06. 3rd Force - An Open Heart (4:30)
07. 3rd Force - Is She Ready (4:21)
08. 3rd Force - Gotta Gotta (4:17)
09. 3rd Force - This Is the One (intro) (1:03)
10. 3rd Force - This Is the One (4:54)
11. 3rd Force - Inside the Rhythm (4:20)
 
Лог извлечения EAC
Exact Audio Copy V0.99 prebeta 4 from 23. January 2008
EAC extraction logfile from 11. April 2008, 19:22
3rd Force / Driving Force
Used drive : PLEXTOR DVDR PX-760A Adapter: 1 ID: 0
Read mode : Secure
Utilize accurate stream : Yes
Defeat audio cache : Yes
Make use of C2 pointers : No
Read offset correction : 30
Overread into Lead-In and Lead-Out : No
Fill up missing offset samples with silence : Yes
Delete leading and trailing silent blocks : No
Null samples used in CRC calculations : No
Used interface : Native Win32 interface for Win NT & 2000
Gap handling : Appended to previous track
Used output format : User Defined Encoder
Selected bitrate : 320 kBit/s
Quality : High
Add ID3 tag : Yes
Command line compressor : C:\Program Files\FLAC\flac.exe
Additional command line options : -8 -V -T "ARTIST=%a" -T "TITLE=%t" -T "ALBUM=%g" -T "DATE=%y" -T "TRACKNUMBER=%n" -T "GENRE=%m" -T "COMMENT=EAC FLAC -8" %s
TOC of the extracted CD
Track | Start | Length | Start sector | End sector
---------------------------------------------------------
1 | 0:00.00 | 5:19.01 | 0 | 23925
2 | 5:19.01 | 4:27.49 | 23926 | 43999
3 | 9:46.50 | 4:30.61 | 44000 | 64310
4 | 14:17.36 | 4:34.38 | 64311 | 84898
5 | 18:51.74 | 4:20.63 | 84899 | 104461
6 | 23:12.62 | 4:30.61 | 104462 | 124772
7 | 27:43.48 | 4:21.42 | 124773 | 144389
8 | 32:05.15 | 4:17.32 | 144390 | 163696
9 | 36:22.47 | 1:03.44 | 163697 | 168465
10 | 37:26.16 | 4:54.70 | 168466 | 190585
11 | 42:21.11 | 4:20.15 | 190586 | 210100
Track 1
Filename C:\APE\3D Force\3rd Force - 2005 - Driving Force\01 - Believe In Me.wav
Pre-gap length 0:00:02.00
Peak level 98.8 %
Track quality 100.0 %
Test CRC 355C3B8E
Copy CRC 355C3B8E
Accurately ripped (confidence 4) [B8A94311]
Copy OK
Track 2
Filename C:\APE\3D Force\3rd Force - 2005 - Driving Force\02 - Ask Me Why.wav
Pre-gap length 0:00:01.40
Peak level 98.8 %
Track quality 99.9 %
Test CRC 986E645B
Copy CRC 986E645B
Accurately ripped (confidence 4) [49EF099D]
Copy OK
Track 3
Filename C:\APE\3D Force\3rd Force - 2005 - Driving Force\03 - Real Thing.wav
Pre-gap length 0:00:00.71
Peak level 98.8 %
Track quality 100.0 %
Test CRC FA0F3B6A
Copy CRC FA0F3B6A
Accurately ripped (confidence 4) [DBCA5BBD]
Copy OK
Track 4
Filename C:\APE\3D Force\3rd Force - 2005 - Driving Force\04 - You Got It.wav
Pre-gap length 0:00:00.59
Peak level 98.8 %
Track quality 100.0 %
Test CRC BFD97FDE
Copy CRC BFD97FDE
Accurately ripped (confidence 4) [095364A7]
Copy OK
Track 5
Filename C:\APE\3D Force\3rd Force - 2005 - Driving Force\05 - Get With It.wav
Peak level 98.8 %
Track quality 100.0 %
Test CRC 97D057A8
Copy CRC 97D057A8
Accurately ripped (confidence 4) [E98ECED1]
Copy OK
Track 6
Filename C:\APE\3D Force\3rd Force - 2005 - Driving Force\06 - An Open Heart.wav
Peak level 98.8 %
Track quality 100.0 %
Test CRC D7295963
Copy CRC D7295963
Accurately ripped (confidence 4) [B15E1CF9]
Copy OK
Track 7
Filename C:\APE\3D Force\3rd Force - 2005 - Driving Force\07 - Is She Ready.wav
Pre-gap length 0:00:00.72
Peak level 98.9 %
Track quality 100.0 %
Test CRC FF8B5681
Copy CRC FF8B5681
Accurately ripped (confidence 4) [8233BAD4]
Copy OK
Track 8
Filename C:\APE\3D Force\3rd Force - 2005 - Driving Force\08 - Gotta Gotta.wav
Pre-gap length 0:00:01.49
Peak level 98.8 %
Track quality 100.0 %
Test CRC F5659891
Copy CRC F5659891
Accurately ripped (confidence 4) [349CFEB6]
Copy OK
Track 9
Filename C:\APE\3D Force\3rd Force - 2005 - Driving Force\09 - This Is The One (Intro).wav
Pre-gap length 0:00:01.38
Peak level 86.0 %
Track quality 100.0 %
Test CRC 14CC8323
Copy CRC 14CC8323
Accurately ripped (confidence 4) [C7317FF9]
Copy OK
Track 10
Filename C:\APE\3D Force\3rd Force - 2005 - Driving Force\10 - This Is The One.wav
Peak level 98.8 %
Track quality 100.0 %
Test CRC 990424C7
Copy CRC 990424C7
Accurately ripped (confidence 4) [717E3D63]
Copy OK
Track 11
Filename C:\APE\3D Force\3rd Force - 2005 - Driving Force\11 - Inside the Rhythm.wav
Peak level 98.8 %
Track quality 100.0 %
Test CRC 5D544171
Copy CRC 5D544171
Accurately ripped (confidence 3) [9A6095E1]
Copy OK
All tracks accurately ripped
No errors occurred
End of status report
Первые четыре альбома и шестой рипнуты с оригинальных дисков (Zolty). Пятый и седьмой рипуты мной с оригинальных дисков.
Приватный:
Нет (DHT включён)
Размер:
2.33 Гб (2,499,274,871 байт) » файлов: 139
Участники:
0 раздают, 0 качают (0 участников всего)
Внешние участники:
--- [ Обновить ]
12:36
2
Нет комментариев. Ваш будет первым!