Поиск

(Contemporary Jazz, Progressive Jazz, Enja Records) Mike Westbrook Band - Off Abbey Road - 1990, FLAC (tracks+.cue), lossless

(Contemporary Jazz, Progressive Jazz, Enja Records) Mike Westbrook Band - Off Abbey Road - 1990, FLAC (tracks+.cue), lossless
Треклист:
Mike Westbrook Band / Off Abbey Road
Жанр: Contemporary Jazz, Progressive Jazz, Enja Records
Страна-производитель диска: Germany
Год издания: 1990
Издатель (лейбл): Enja Records
Номер по каталогу: TIP TOE 888 805
Аудиокодек: FLAC (*.flac)
Тип рипа: tracks+.cue
Битрейт аудио: lossless
Продолжительность: 1:14:43
Источник (релизер): Max Monteiro
Наличие сканов в содержимом раздачи: нет
Треклист:
01. Come Together 4:54
02. Something* 8:51
03. Maxwell’s Silver Hammer 3:41
04. Oh! Darling 4:40
05. Octopus’s Garden** 4:25
06. I Want You (She’s So Heavy) 7:57
07. Here Comes the Sun* 6:40
08. Because 10:00
09. You Never Give Me Your Money 7:08
10. Sun King 2:28
11. Mean Mr. Mustard 2:07
12. Polythene Pam 1:50
13. She Came in Through the Bathroom Window 2:52
14. Golden Slumbers 3:55
15. Carry That Weight 1:20
16. The End 1:55
Music and Lyrics by John Lennon, Paul McCartney, George Harrison* & Ringo Starr**.
Arranged by Mike Westbrook.
Recorded live at Willisau Jazz Festival, 31st August 1989.
Kate Westbrook – Vocals, Tenor Horn and Piccolo
Phil Minton – Vocals, Trumpet
Mike Westbrook – Piano
Brian Godding – Guitar
Peter Fairclough – Drums
Andy Grappy – Tuba
Peter Whyman – Alto Saxophone and Clarinet
Alan Wakeman – Baritone and Soprano Saxophones
 
Лог создания рипа
Exact Audio Copy V1.0 beta 3 from 29. August 2011
EAC extraction logfile from 4. August 2013, 14:19
Mike Westbrook Band / Off Abbey Road
Used drive : SlimtypeeNAU508 5 Adapter: 1 ID: 0
Read mode : Secure
Utilize accurate stream : Yes
Defeat audio cache : Yes
Make use of C2 pointers : No
Read offset correction : 6
Overread into Lead-In and Lead-Out : No
Fill up missing offset samples with silence : Yes
Delete leading and trailing silent blocks : No
Null samples used in CRC calculations : Yes
Used interface : Native Win32 interface for Win NT & 2000
Gap handling : Appended to previous track
Used output format : User Defined Encoder
Selected bitrate : 768 kBit/s
Quality : High
Add ID3 tag : No
Command line compressor : C:\Program Files (x86)\Exact Audio Copy\Flac\flac.exe
Additional command line options : -8 -V -T "ARTIST=%artist%" -T "TITLE=%title%" -T "ALBUM=%albumtitle%" -T "DATE=%year%" -T "TRACKNUMBER=%tracknr%" -T "GENRE=%genre%" -T "PERFORMER=%albuminterpret%" -T "COMPOSER=%composer%" %haslyrics%--tag-from-file=LYRICS="%lyricsfile%"%haslyrics% -T "ALBUMARTIST=%albumartist%" -T "DISCNUMBER=%cdnumber%" -T "TOTALDISCS=%totalcds%" -T "TOTALTRACKS=%numtracks%" -T "COMMENT=%comment%" %source% -o %dest%
TOC of the extracted CD
Track | Start | Length | Start sector | End sector
---------------------------------------------------------
1 | 0:00.32 | 4:53.45 | 32 | 22051
2 | 4:54.02 | 8:51.00 | 22052 | 61876
3 | 13:45.02 | 3:40.63 | 61877 | 78439
4 | 17:25.65 | 4:39.62 | 78440 | 99426
5 | 22:05.52 | 4:24.65 | 99427 | 119291
6 | 26:30.42 | 7:56.68 | 119292 | 155059
7 | 34:27.35 | 6:39.67 | 155060 | 185051
8 | 41:07.27 | 10:00.20 | 185052 | 230071
9 | 51:07.47 | 7:08.30 | 230072 | 262201
10 | 58:16.02 | 2:28.03 | 262202 | 273304
11 | 60:44.05 | 2:06.45 | 273305 | 282799
12 | 62:50.50 | 1:50.30 | 282800 | 291079
13 | 64:41.05 | 2:51.47 | 291080 | 303951
14 | 67:32.52 | 3:55.30 | 303952 | 321606
15 | 71:28.07 | 1:20.08 | 321607 | 327614
16 | 72:48.15 | 1:54.70 | 327615 | 336234
Track 1
Filename C:\EAC rips\01 - Come Together.wav
Pre-gap length 0:00:02.32
Peak level 86.6 %
Extraction speed 1.2 X
Track quality 100.0 %
Test CRC F764DD2D
Copy CRC F764DD2D
Cannot be verified as accurate (confidence 11) [34753667], AccurateRip returned [224578D3] (AR v2)
Copy OK
Track 2
Filename C:\EAC rips\02 - Something.wav
Pre-gap length 0:00:02.40
Peak level 84.2 %
Extraction speed 1.5 X
Track quality 100.0 %
Test CRC A680CD0F
Copy CRC A680CD0F
Cannot be verified as accurate (confidence 10) [4AF81023], AccurateRip returned [9F96F6C1] (AR v2)
Copy OK
Track 3
Filename C:\EAC rips\03 - Maxwell's Silver Hammer.wav
Pre-gap length 0:00:04.72
Peak level 81.8 %
Extraction speed 1.5 X
Track quality 100.0 %
Test CRC 65B9E79E
Copy CRC 65B9E79E
Cannot be verified as accurate (confidence 10) [2C78A1A7], AccurateRip returned [7A0EE33F] (AR v2)
Copy OK
Track 4
Filename C:\EAC rips\04 - Oh! Darling.wav
Pre-gap length 0:00:06.55
Peak level 84.6 %
Extraction speed 1.5 X
Track quality 99.9 %
Test CRC A503B769
Copy CRC A503B769
Cannot be verified as accurate (confidence 11) [5AB02E94], AccurateRip returned [589AE687] (AR v2)
Copy OK
Track 5
Filename C:\EAC rips\05 - Octopus's Garden.wav
Pre-gap length 0:00:08.50
Peak level 67.5 %
Extraction speed 1.8 X
Track quality 100.0 %
Test CRC 488CF66E
Copy CRC 488CF66E
Cannot be verified as accurate (confidence 11) [C1BBDBAE], AccurateRip returned [6E393F3E] (AR v2)
Copy OK
Track 6
Filename C:\EAC rips\06 - I Want You (She's So Heavy).wav
Pre-gap length 0:00:07.17
Peak level 84.6 %
Extraction speed 2.0 X
Track quality 100.0 %
Test CRC D10CCA5E
Copy CRC D10CCA5E
Cannot be verified as accurate (confidence 11) [019D4901], AccurateRip returned [4FBC7E1D] (AR v2)
Copy OK
Track 7
Filename C:\EAC rips\07 - Here Comes the Sun.wav
Peak level 93.4 %
Extraction speed 2.1 X
Track quality 100.0 %
Test CRC DBEE4BC7
Copy CRC DBEE4BC7
Cannot be verified as accurate (confidence 11) [07D1E1F9], AccurateRip returned [9BCCD177] (AR v2)
Copy OK
Track 8
Filename C:\EAC rips\08 - Because.wav
Pre-gap length 0:00:15.25
Peak level 82.6 %
Extraction speed 2.2 X
Track quality 99.9 %
Test CRC 02ADEF7C
Copy CRC 02ADEF7C
Cannot be verified as accurate (confidence 11) [A69D1A47], AccurateRip returned [E15B4B6E] (AR v2)
Copy OK
Track 9
Filename C:\EAC rips\09 - You Never Give Me Your Money.wav
Peak level 82.4 %
Extraction speed 2.4 X
Track quality 100.0 %
Test CRC 6B2B5FF7
Copy CRC 6B2B5FF7
Cannot be verified as accurate (confidence 10) [26C9547F], AccurateRip returned [F4580B2F] (AR v2)
Copy OK
Track 10
Filename C:\EAC rips\10 - Sun King.wav
Peak level 81.8 %
Extraction speed 1.8 X
Track quality 99.9 %
Test CRC 4CBFD1D7
Copy CRC 4CBFD1D7
Cannot be verified as accurate (confidence 10) [184B4551], AccurateRip returned [75FCDC21] (AR v2)
Copy OK
Track 11
Filename C:\EAC rips\11 - Mean Mr. Mustard.wav
Peak level 84.1 %
Extraction speed 2.1 X
Track quality 100.0 %
Test CRC 747E22D7
Copy CRC 747E22D7
Cannot be verified as accurate (confidence 10) [B99A4E67], AccurateRip returned [8D44B63C] (AR v2)
Copy OK
Track 12
Filename C:\EAC rips\12 - Polythene Pam.wav
Peak level 84.6 %
Extraction speed 2.1 X
Track quality 100.0 %
Test CRC 8FA7B512
Copy CRC 8FA7B512
Cannot be verified as accurate (confidence 11) [924DE029], AccurateRip returned [B1E89B61] (AR v2)
Copy OK
Track 13
Filename C:\EAC rips\13 - She Came in Through the Bathroom Window.wav
Peak level 81.3 %
Extraction speed 1.9 X
Track quality 99.9 %
Test CRC 3B004C56
Copy CRC 3B004C56
Cannot be verified as accurate (confidence 10) [C9E36377], AccurateRip returned [14A6D701] (AR v2)
Copy OK
Track 14
Filename C:\EAC rips\14 - Golden Slumbers.wav
Pre-gap length 0:00:12.32
Peak level 70.8 %
Extraction speed 2.2 X
Track quality 99.9 %
Test CRC 0BE170F8
Copy CRC 0BE170F8
Cannot be verified as accurate (confidence 11) [5E98FF92], AccurateRip returned [ACBCF360] (AR v2)
Copy OK
Track 15
Filename C:\EAC rips\15 - Carry That Weight.wav
Peak level 79.9 %
Extraction speed 1.9 X
Track quality 100.0 %
Test CRC B43CAE7A
Copy CRC B43CAE7A
Cannot be verified as accurate (confidence 11) [8432DA5A], AccurateRip returned [DFE0C0EA] (AR v2)
Copy OK
Track 16
Filename C:\EAC rips\16 - The End.wav
Peak level 84.1 %
Extraction speed 2.2 X
Track quality 100.0 %
Test CRC E86494E6
Copy CRC E86494E6
Cannot be verified as accurate (confidence 11) [256D4500], AccurateRip returned [5EE0687B] (AR v2)
Copy OK
No tracks could be verified as accurate
You may have a different pressing from the one(s) in the database
No errors occurred
End of status report
---- CUETools DB Plugin V2.1.4
[CTDB TOCID: hAqPn_5I6rq9KmIHUHPjgxO3dpg-] disk not present in database
Submit result: hAqPn_5I6rq9KmIHUHPjgxO3dpg- has been uploaded
==== Log checksum 7E2C163FD638E4B9239A19EA06D2F8363B055BD4B5CE49E4D2B63D934CCD2CA2 ====
 
Содержание индексной карты (.CUE)
REM GENRE Jazz
REM DATE 1990
REM DISCID 05118310
REM COMMENT "ExactAudioCopy v1.0b3"
PERFORMER "Mike Westbrook Band"
TITLE "Off Abbey Road"
FILE "01 - Come Together.wav" WAVE
TRACK 01 AUDIO
TITLE "Come Together"
PERFORMER "Mike Westbrook Band"
PREGAP 00:00:32
INDEX 01 00:00:00
TRACK 02 AUDIO
TITLE "Something"
PERFORMER "Mike Westbrook Band"
INDEX 00 04:51:05
FILE "02 - Something.wav" WAVE
INDEX 01 00:00:00
TRACK 03 AUDIO
TITLE "Maxwell's Silver Hammer"
PERFORMER "Mike Westbrook Band"
INDEX 00 08:46:03
FILE "03 - Maxwell's Silver Hammer.wav" WAVE
INDEX 01 00:00:00
TRACK 04 AUDIO
TITLE "Oh! Darling"
PERFORMER "Mike Westbrook Band"
INDEX 00 03:34:08
FILE "04 - Oh! Darling.wav" WAVE
INDEX 01 00:00:00
TRACK 05 AUDIO
TITLE "Octopus's Garden"
PERFORMER "Mike Westbrook Band"
INDEX 00 04:31:12
FILE "05 - Octopus's Garden.wav" WAVE
INDEX 01 00:00:00
TRACK 06 AUDIO
TITLE "I Want You (She's So Heavy)"
PERFORMER "Mike Westbrook Band"
INDEX 00 04:17:48
FILE "06 - I Want You (She's So Heavy).wav" WAVE
INDEX 01 00:00:00
FILE "07 - Here Comes the Sun.wav" WAVE
TRACK 07 AUDIO
TITLE "Here Comes the Sun"
PERFORMER "Mike Westbrook Band"
INDEX 01 00:00:00
TRACK 08 AUDIO
TITLE "Because"
PERFORMER "Mike Westbrook Band"
INDEX 00 06:24:42
FILE "08 - Because.wav" WAVE
INDEX 01 00:00:00
FILE "09 - You Never Give Me Your Money.wav" WAVE
TRACK 09 AUDIO
TITLE "You Never Give Me Your Money"
PERFORMER "Mike Westbrook Band"
INDEX 01 00:00:00
FILE "10 - Sun King.wav" WAVE
TRACK 10 AUDIO
TITLE "Sun King"
PERFORMER "Mike Westbrook Band"
INDEX 01 00:00:00
FILE "11 - Mean Mr. Mustard.wav" WAVE
TRACK 11 AUDIO
TITLE "Mean Mr. Mustard"
PERFORMER "Mike Westbrook Band"
INDEX 01 00:00:00
FILE "12 - Polythene Pam.wav" WAVE
TRACK 12 AUDIO
TITLE "Polythene Pam"
PERFORMER "Mike Westbrook Band"
INDEX 01 00:00:00
FILE "13 - She Came in Through the Bathroom Window.wav" WAVE
TRACK 13 AUDIO
TITLE "She Came in Through the Bathroom Window"
PERFORMER "Mike Westbrook Band"
INDEX 01 00:00:00
TRACK 14 AUDIO
TITLE "Golden Slumbers"
PERFORMER "Mike Westbrook Band"
INDEX 00 02:39:15
FILE "14 - Golden Slumbers.wav" WAVE
INDEX 01 00:00:00
FILE "15 - Carry That Weight.wav" WAVE
TRACK 15 AUDIO
TITLE "Carry That Weight"
PERFORMER "Mike Westbrook Band"
INDEX 01 00:00:00
FILE "16 - The End.wav" WAVE
TRACK 16 AUDIO
TITLE "The End"
PERFORMER "Mike Westbrook Band"
INDEX 01 00:00:00
 
CUETools
[CUETools log; Date: 04.08.2013 14:22:21; Version: 2.1.4]
Pregap length 00:00:32.
[CTDB TOCID: hAqPn_5I6rq9KmIHUHPjgxO3dpg-] found.
Track | CTDB Status
1 | (1/1) Accurately ripped
2 | (1/1) Accurately ripped
3 | (1/1) Accurately ripped
4 | (1/1) Accurately ripped
5 | (1/1) Accurately ripped
6 | (1/1) Accurately ripped
7 | (1/1) Accurately ripped
8 | (1/1) Accurately ripped
9 | (1/1) Accurately ripped
10 | (1/1) Accurately ripped
11 | (1/1) Accurately ripped
12 | (1/1) Accurately ripped
13 | (1/1) Accurately ripped
14 | (1/1) Accurately ripped
15 | (1/1) Accurately ripped
16 | (1/1) Accurately ripped
[AccurateRip ID: 00331e54-0256b255-05118310] found.
Track [ CRC | V2 ] Status
01 [661c7ae9|34753667] (00+00/15) No match
02 [724dd00b|4af81023] (00+00/14) No match
03 [dc88593b|2c78a1a7] (00+00/14) No match
04 [c0c49a6a|5ab02e94] (00+00/15) No match
05 [b56e9a83|c1bbdbae] (00+00/15) No match
06 [5049fbb3|019d4901] (00+00/14) No match
07 [2956efe5|07d1e1f9] (00+00/15) No match
08 [26b3e08e|a69d1a47] (00+00/15) No match
09 [e5c00c4e|26c9547f] (00+00/14) No match
10 [3bb1c0f3|184b4551] (00+00/14) No match
11 [9567ad4f|b99a4e67] (00+00/14) No match
12 [982d7de1|924de029] (00+00/15) No match
13 [c02fdbe9|c9e36377] (00+00/14) No match
14 [348d57cc|5e98ff92] (00+00/15) No match
15 [19319199|8432da5a] (00+00/15) No match
16 [f64803d8|256d4500] (00+00/15) No match
Offsetted by 679:
01 [224578d3] (11/15) Accurately ripped
02 [9f96f6c1] (10/14) Accurately ripped
03 [7a0ee33f] (10/14) Accurately ripped
04 [589ae687] (11/15) Accurately ripped
05 [6e393f3e] (11/15) Accurately ripped
06 [4fbc7e1d] (11/14) Accurately ripped
07 [9bccd177] (11/15) Accurately ripped
08 [e15b4b6e] (11/15) Accurately ripped
09 [f4580b2f] (10/14) Accurately ripped
10 [75fcdc21] (10/14) Accurately ripped
11 [8d44b63c] (10/14) Accurately ripped
12 [b1e89b61] (11/15) Accurately ripped
13 [14a6d701] (10/14) Accurately ripped
14 [acbcf360] (11/15) Accurately ripped
15 [dfe0c0ea] (11/15) Accurately ripped
16 [5ee0687b] (11/15) Accurately ripped
Track Peak [ CRC32 ] [W/O NULL] [ LOG ]
-- 93.4 [916F7FB6] [577559EA]
01 86.6 [F764DD2D] [1076AD89] CRC32
02 84.2 [A680CD0F] [7E2956C7] CRC32
03 81.8 [65B9E79E] [9B656274] CRC32
04 84.6 [A503B769] [FD8326E9] CRC32
05 67.5 [488CF66E] [69DF46CF] CRC32
06 84.6 [D10CCA5E] [9D30CEE4] CRC32
07 93.4 [DBEE4BC7] [6EC83703] CRC32
08 82.6 [02ADEF7C] [46F67A3B] CRC32
09 82.4 [6B2B5FF7] [8BAE550A] CRC32
10 81.8 [4CBFD1D7] [5EF6B050] CRC32
11 84.1 [747E22D7] [7F4BFF37] CRC32
12 84.6 [8FA7B512] [71103E56] CRC32
13 81.3 [3B004C56] [1DCAB3E9] CRC32
14 70.8 [0BE170F8] [D932F63A] CRC32
15 79.9 [B43CAE7A] [529BB0DD] CRC32
16 84.1 [E86494E6] [86B27DAD] CRC32
По всем вопросам пишите личное сообщение пользователю M0p94ok.
17:54
184
Нет комментариев. Ваш будет первым!