Вы используете незарегистрированную версию компонента "Вкладки"!

Поиск

(Contemporary Jazz, Altri Suoni) Michel Bastet, Philippe Cornaz, Raul Esmerode - D'ailes fines - 2001, FLAC (tracks+.cue), lossless

(Contemporary Jazz, Altri Suoni) Michel Bastet, Philippe Cornaz, Raul Esmerode - D'ailes fines - 2001, FLAC (tracks+.cue), lossless
Треклист:
Michel Bastet, Philippe Cornaz, Raùl Esmerode / D'ailes fines (musique pour piano, vibraphone et marimba)
Жанр: Contemporary Jazz, Altri Suoni
Страна-производитель диска: Switzerland
Год издания: 2001
Издатель (лейбл): Altri Suoni
Номер по каталогу: AS 098
Аудиокодек: FLAC (*.flac)
Тип рипа: tracks+.cue
Битрейт аудио: lossless
Продолжительность: 59:15
Источник (релизер): Max Monteiro
Наличие сканов в содержимом раздачи: нет
Треклист:
01. An Evening with Mam (Philippe Cornaz) 6:34
02. Child Song (Fred Hersch) 9:19
03. Doctor Bit (Michel Bastet) 4:27
04. D’ailes fines (Michel Bastet) 5:23
05. I Mean You (Thelonious Monk) 3:56
06. Le Guilleret Guilledou (Philippe Cornaz) 5:11
07. Pluie et Soleil (Michel Bastet) 6:01
08. Primavera Porteña (Astor Piazzolla) 5:19
09. Brise d’anis (Michel Bastet) 5:28
10. Vashkar (Carla Bley) 5:09
11. When Will the Blues Leave (Ornette Coleman) 2:29
Enregistré au studio « Axis » les 27, 28 février et 1er mars 2001.
Michel Bastet – piano
Philippe Cornaz – vibraphone, marimba (track 6)
Raùl Esmerode – marimba, vibraphone (track 6), percussion (tracks 6, 10, 11)
 
Лог создания рипа
Exact Audio Copy V1.0 beta 3 from 29. August 2011
EAC extraction logfile from 5. September 2013, 22:23
Michel Bastet, Philippe Cornaz, Raùl Esmerode / D'ailes fines
Used drive : SlimtypeeNAU508 5 Adapter: 1 ID: 0
Read mode : Secure
Utilize accurate stream : Yes
Defeat audio cache : Yes
Make use of C2 pointers : No
Read offset correction : 6
Overread into Lead-In and Lead-Out : No
Fill up missing offset samples with silence : Yes
Delete leading and trailing silent blocks : No
Null samples used in CRC calculations : Yes
Used interface : Native Win32 interface for Win NT & 2000
Gap handling : Appended to previous track
Used output format : User Defined Encoder
Selected bitrate : 768 kBit/s
Quality : High
Add ID3 tag : No
Command line compressor : C:\Program Files (x86)\Exact Audio Copy\Flac\flac.exe
Additional command line options : -8 -V -T "ARTIST=%artist%" -T "TITLE=%title%" -T "ALBUM=%albumtitle%" -T "DATE=%year%" -T "TRACKNUMBER=%tracknr%" -T "GENRE=%genre%" -T "PERFORMER=%albuminterpret%" -T "COMPOSER=%composer%" %haslyrics%--tag-from-file=LYRICS="%lyricsfile%"%haslyrics% -T "ALBUMARTIST=%albumartist%" -T "DISCNUMBER=%cdnumber%" -T "TOTALDISCS=%totalcds%" -T "TOTALTRACKS=%numtracks%" -T "COMMENT=%comment%" %source% -o %dest%
TOC of the extracted CD
Track | Start | Length | Start sector | End sector
---------------------------------------------------------
1 | 0:00.00 | 6:33.48 | 0 | 29522
2 | 6:33.48 | 9:18.64 | 29523 | 71436
3 | 15:52.37 | 4:27.10 | 71437 | 91471
4 | 20:19.47 | 5:23.26 | 91472 | 115722
5 | 25:42.73 | 3:55.49 | 115723 | 133396
6 | 29:38.47 | 5:11.24 | 133397 | 156745
7 | 34:49.71 | 6:00.38 | 156746 | 183783
8 | 40:50.34 | 5:18.57 | 183784 | 207690
9 | 46:09.16 | 5:27.53 | 207691 | 232268
10 | 51:36.69 | 5:09.31 | 232269 | 255474
11 | 56:46.25 | 2:29.03 | 255475 | 266652
Track 1
Filename C:\EAC rips\01 - An Evening with Mam.wav
Pre-gap length 0:00:02.00
Peak level 99.8 %
Extraction speed 2.3 X
Track quality 100.0 %
Test CRC 31E6D6C6
Copy CRC 31E6D6C6
Track not present in AccurateRip database
Copy OK
Track 2
Filename C:\EAC rips\02 - Child Song.wav
Pre-gap length 0:00:05.67
Peak level 99.8 %
Extraction speed 2.8 X
Track quality 100.0 %
Test CRC 3B5B0A3E
Copy CRC 3B5B0A3E
Track not present in AccurateRip database
Copy OK
Track 3
Filename C:\EAC rips\03 - Doctor Bit.wav
Pre-gap length 0:00:05.14
Peak level 99.7 %
Extraction speed 2.9 X
Track quality 100.0 %
Test CRC 1721B2F2
Copy CRC 1721B2F2
Track not present in AccurateRip database
Copy OK
Track 4
Filename C:\EAC rips\04 - D'ailes fines.wav
Pre-gap length 0:00:03.66
Peak level 99.8 %
Extraction speed 2.7 X
Track quality 99.9 %
Test CRC FB04AC26
Copy CRC FB04AC26
Track not present in AccurateRip database
Copy OK
Track 5
Filename C:\EAC rips\05 - I Mean You.wav
Pre-gap length 0:00:04.53
Peak level 99.7 %
Extraction speed 3.2 X
Track quality 100.0 %
Test CRC C1E6A85C
Copy CRC C1E6A85C
Track not present in AccurateRip database
Copy OK
Track 6
Filename C:\EAC rips\06 - Le Guilleret Guilledou.wav
Pre-gap length 0:00:05.72
Peak level 99.9 %
Extraction speed 3.5 X
Track quality 100.0 %
Test CRC E2635BCA
Copy CRC E2635BCA
Track not present in AccurateRip database
Copy OK
Track 7
Filename C:\EAC rips\07 - Pluie et Soleil.wav
Pre-gap length 0:00:02.15
Peak level 99.7 %
Extraction speed 3.3 X
Track quality 99.9 %
Test CRC 6DE2F09E
Copy CRC 6DE2F09E
Track not present in AccurateRip database
Copy OK
Track 8
Filename C:\EAC rips\08 - Primavera Porteña.wav
Pre-gap length 0:00:03.31
Peak level 99.7 %
Extraction speed 4.0 X
Track quality 100.0 %
Test CRC B434B85F
Copy CRC B434B85F
Track not present in AccurateRip database
Copy OK
Track 9
Filename C:\EAC rips\09 - Brise d'anis.wav
Pre-gap length 0:00:05.35
Peak level 99.8 %
Extraction speed 4.1 X
Track quality 100.0 %
Test CRC 36BBBD14
Copy CRC 36BBBD14
Track not present in AccurateRip database
Copy OK
Track 10
Filename C:\EAC rips\10 - Vashkar.wav
Pre-gap length 0:00:00.26
Peak level 99.7 %
Extraction speed 2.9 X
Track quality 99.8 %
Test CRC 769ABC55
Copy CRC 769ABC55
Track not present in AccurateRip database
Copy OK
Track 11
Filename C:\EAC rips\11 - When Will the Bues Leave.wav
Pre-gap length 0:00:03.22
Peak level 99.7 %
Extraction speed 2.9 X
Track quality 99.9 %
Test CRC 2B5AA402
Copy CRC 2B5AA402
Track not present in AccurateRip database
Copy OK
None of the tracks are present in the AccurateRip database
No errors occurred
End of status report
---- CUETools DB Plugin V2.1.4
[CTDB TOCID: 3gjSUUYKo.RDaVtYR9gApQ1yqEQ-] disk not present in database
Submit result: 3gjSUUYKo.RDaVtYR9gApQ1yqEQ- has been uploaded
==== Log checksum 97E78AA1EABA69D28CEE472D491B6D0BB09E6E496C474E9319DD8E9F062A23A4 ====
 
Содержание индексной карты (.CUE)
REM GENRE Jazz
REM DATE 2001
REM DISCID 960DE30B
REM COMMENT "ExactAudioCopy v1.0b3"
PERFORMER "Michel Bastet, Philippe Cornaz, Raùl Esmerode"
TITLE "D'ailes fines"
FILE "01 - An Evening with Mam.wav" WAVE
TRACK 01 AUDIO
TITLE "An Evening with Mam"
PERFORMER "Michel Bastet, Philippe Cornaz, Raùl Esmerode"
FLAGS DCP
INDEX 01 00:00:00
TRACK 02 AUDIO
TITLE "Child Song"
PERFORMER "Michel Bastet, Philippe Cornaz, Raùl Esmerode"
FLAGS DCP
INDEX 00 06:27:56
FILE "02 - Child Song.wav" WAVE
INDEX 01 00:00:00
TRACK 03 AUDIO
TITLE "Doctor Bit"
PERFORMER "Michel Bastet, Philippe Cornaz, Raùl Esmerode"
FLAGS DCP
INDEX 00 09:13:50
FILE "03 - Doctor Bit.wav" WAVE
INDEX 01 00:00:00
TRACK 04 AUDIO
TITLE "D'ailes fines"
PERFORMER "Michel Bastet, Philippe Cornaz, Raùl Esmerode"
FLAGS DCP
INDEX 00 04:23:19
FILE "04 - D'ailes fines.wav" WAVE
INDEX 01 00:00:00
TRACK 05 AUDIO
TITLE "I Mean You"
PERFORMER "Michel Bastet, Philippe Cornaz, Raùl Esmerode"
FLAGS DCP
INDEX 00 05:18:48
FILE "05 - I Mean You.wav" WAVE
INDEX 01 00:00:00
TRACK 06 AUDIO
TITLE "Le Guilleret Guilledou"
PERFORMER "Michel Bastet, Philippe Cornaz, Raùl Esmerode"
FLAGS DCP
INDEX 00 03:49:52
FILE "06 - Le Guilleret Guilledou.wav" WAVE
INDEX 01 00:00:00
TRACK 07 AUDIO
TITLE "Pluie et Soleil"
PERFORMER "Michel Bastet, Philippe Cornaz, Raùl Esmerode"
FLAGS DCP
INDEX 00 05:09:09
FILE "07 - Pluie et Soleil.wav" WAVE
INDEX 01 00:00:00
TRACK 08 AUDIO
TITLE "Primavera Porteña"
PERFORMER "Michel Bastet, Philippe Cornaz, Raùl Esmerode"
FLAGS DCP
INDEX 00 05:57:07
FILE "08 - Primavera Porteña.wav" WAVE
INDEX 01 00:00:00
TRACK 09 AUDIO
TITLE "Brise d'anis"
PERFORMER "Michel Bastet, Philippe Cornaz, Raùl Esmerode"
FLAGS DCP
INDEX 00 05:13:22
FILE "09 - Brise d'anis.wav" WAVE
INDEX 01 00:00:00
TRACK 10 AUDIO
TITLE "Vashkar"
PERFORMER "Michel Bastet, Philippe Cornaz, Raùl Esmerode"
FLAGS DCP
INDEX 00 05:27:27
FILE "10 - Vashkar.wav" WAVE
INDEX 01 00:00:00
TRACK 11 AUDIO
TITLE "When Will the Bues Leave"
PERFORMER "Michel Bastet, Philippe Cornaz, Raùl Esmerode"
FLAGS DCP
INDEX 00 05:06:09
FILE "11 - When Will the Bues Leave.wav" WAVE
INDEX 01 00:00:00
Доп. информация: The picture doesn't represent the cover of the album.
По всем вопросам пишите личное сообщение пользователю M0p94ok.
17:53
160
Нет комментариев. Ваш будет первым!