Вы используете незарегистрированную версию компонента "Вкладки"!

Поиск

(Contemporary Jazz, Enja Records) Glenn Ferris, Bruno Rousselet, Ernie Odoom - Ferris Wheel - 2009, FLAC (tracks+.cue), lossless

(Contemporary Jazz, Enja Records) Glenn Ferris, Bruno Rousselet, Ernie Odoom - Ferris Wheel - 2009, FLAC (tracks+.cue), lossless
Треклист:
Glenn Ferris, Bruno Rousselet, Ernie Odoom / Ferris Wheel
Жанр: Contemporary Jazz, Enja Records
Страна-производитель диска: Germany
Год издания: 2009
Издатель (лейбл): Enja Records
Номер по каталогу: enja 9197
Аудиокодек: FLAC (*.flac)
Тип рипа: tracks+.cue
Битрейт аудио: lossless
Продолжительность: 58:31
Источник (релизер): Max Monteiro
Наличие сканов в содержимом раздачи: нет
Треклист:
1. Something on My Mind (words and music Glenn Ferris) 7:25
2. Sabbath Prayer (words Sheldon Harnick – music Jerry Bock) 7:02
3. To You (words and music Glenn Ferris) 11:19
4. Metrognome (music Glenn Ferris) 3:47
5. Ready to Go (words and music Glenn Ferris) 5:43
6. Like That (words and music Glenn Ferris) 9:29
7. You Are So Beautiful (words and music Bruce Fisher, Billy Preston) 4:27
8. Who’s There – Out There? (words and music Glenn Ferris) 2:03
9. Forever Blues (words and music Glenn Ferris) 7:16
Recorded on May 30 and 31, 2008 at the AMR Jazz Club, Geneva.
Glenn Ferris – Trombone
Bruno Rousselet – Bass
Ernie Odoom – Vocals, Percussion
 
Лог создания рипа
Exact Audio Copy V1.0 beta 3 from 29. August 2011
EAC extraction logfile from 23. July 2013, 23:07
Glenn Ferris, Bruno Rousselet, Ernie Odoom / Ferris Wheel
Used drive : SlimtypeeNAU508 5 Adapter: 1 ID: 0
Read mode : Secure
Utilize accurate stream : Yes
Defeat audio cache : Yes
Make use of C2 pointers : No
Read offset correction : 6
Overread into Lead-In and Lead-Out : No
Fill up missing offset samples with silence : Yes
Delete leading and trailing silent blocks : No
Null samples used in CRC calculations : Yes
Used interface : Native Win32 interface for Win NT & 2000
Gap handling : Appended to previous track
Used output format : User Defined Encoder
Selected bitrate : 768 kBit/s
Quality : High
Add ID3 tag : No
Command line compressor : C:\Program Files (x86)\Exact Audio Copy\Flac\flac.exe
Additional command line options : -8 -V -T "ARTIST=%artist%" -T "TITLE=%title%" -T "ALBUM=%albumtitle%" -T "DATE=%year%" -T "TRACKNUMBER=%tracknr%" -T "GENRE=%genre%" -T "PERFORMER=%albuminterpret%" -T "COMPOSER=%composer%" %haslyrics%--tag-from-file=LYRICS="%lyricsfile%"%haslyrics% -T "ALBUMARTIST=%albumartist%" -T "DISCNUMBER=%cdnumber%" -T "TOTALDISCS=%totalcds%" -T "TOTALTRACKS=%numtracks%" -T "COMMENT=%comment%" %source% -o %dest%
TOC of the extracted CD
Track | Start | Length | Start sector | End sector
---------------------------------------------------------
1 | 0:00.00 | 7:25.00 | 0 | 33374
2 | 7:25.00 | 7:01.74 | 33375 | 65023
3 | 14:26.74 | 11:19.00 | 65024 | 115948
4 | 25:45.74 | 3:47.00 | 115949 | 132973
5 | 29:32.74 | 5:43.33 | 132974 | 158731
6 | 35:16.32 | 9:29.00 | 158732 | 201406
7 | 44:45.32 | 4:27.35 | 201407 | 221466
8 | 49:12.67 | 2:02.39 | 221467 | 230655
9 | 51:15.31 | 7:16.00 | 230656 | 263355
Track 1
Filename C:\EAC rips\01 - Something on My Mind.wav
Pre-gap length 0:00:02.00
Peak level 96.5 %
Extraction speed 2.4 X
Track quality 100.0 %
Test CRC 45EE4939
Copy CRC 45EE4939
Accurately ripped (confidence 1) [8A36450E] (AR v1)
Copy OK
Track 2
Filename C:\EAC rips\02 - Sabbath Prayer.wav
Peak level 96.5 %
Extraction speed 2.5 X
Track quality 99.9 %
Test CRC B5600136
Copy CRC B5600136
Accurately ripped (confidence 1) [468FA900] (AR v1)
Copy OK
Track 3
Filename C:\EAC rips\03 - To You.wav
Peak level 96.5 %
Extraction speed 3.3 X
Track quality 100.0 %
Test CRC 5E3981D7
Copy CRC 5E3981D7
Accurately ripped (confidence 1) [94D92DDF] (AR v1)
Copy OK
Track 4
Filename C:\EAC rips\04 - Metrognome.wav
Peak level 96.5 %
Extraction speed 3.3 X
Track quality 100.0 %
Test CRC 7FBC3861
Copy CRC 7FBC3861
Accurately ripped (confidence 1) [FD359657] (AR v1)
Copy OK
Track 5
Filename C:\EAC rips\05 - Ready to Go.wav
Pre-gap length 0:00:06.00
Peak level 96.5 %
Extraction speed 3.7 X
Track quality 100.0 %
Test CRC 422F9E22
Copy CRC 422F9E22
Accurately ripped (confidence 1) [5C0ABEFC] (AR v1)
Copy OK
Track 6
Filename C:\EAC rips\06 - Like That.wav
Peak level 96.5 %
Extraction speed 4.1 X
Track quality 100.0 %
Test CRC BE0225E6
Copy CRC BE0225E6
Accurately ripped (confidence 1) [2C2B56D0] (AR v1)
Copy OK
Track 7
Filename C:\EAC rips\07 - You Are So Beautiful.wav
Pre-gap length 0:00:01.00
Peak level 96.5 %
Extraction speed 4.0 X
Track quality 100.0 %
Test CRC 748BAB81
Copy CRC 748BAB81
Accurately ripped (confidence 1) [5F7B252F] (AR v1)
Copy OK
Track 8
Filename C:\EAC rips\08 - Whose There - Out There_.wav
Peak level 96.5 %
Extraction speed 2.6 X
Track quality 99.9 %
Test CRC C8C3E713
Copy CRC C8C3E713
Accurately ripped (confidence 1) [E671DA72] (AR v1)
Copy OK
Track 9
Filename C:\EAC rips\09 - Forever Blues.wav
Peak level 96.5 %
Extraction speed 4.5 X
Track quality 100.0 %
Test CRC 35BE14EC
Copy CRC 35BE14EC
Accurately ripped (confidence 1) [121145A4] (AR v1)
Copy OK
All tracks accurately ripped
No errors occurred
End of status report
---- CUETools DB Plugin V2.1.4
[CTDB TOCID: EEhEjbXVn9_LytyKh7WHHkvPN.E-] disk not present in database
Submit result: EEhEjbXVn9_LytyKh7WHHkvPN.E- has been uploaded
==== Log checksum 631AD7DA269116F77FE055050679D35221B457FAF3755762D9A497C6BBF746BE ====
 
Содержание индексной карты (.CUE)
REM GENRE Jazz
REM DATE 2009
REM DISCID 930DB709
REM COMMENT "ExactAudioCopy v1.0b3"
PERFORMER "Glenn Ferris, Bruno Rousselet, Ernie Odoom"
TITLE "Ferris Wheel"
FILE "01 - Something on My Mind.wav" WAVE
TRACK 01 AUDIO
TITLE "Something on My Mind"
PERFORMER "Glenn Ferris, Bruno Rousselet, Ernie Odoom"
ISRC DEAM80900096
INDEX 01 00:00:00
FILE "02 - Sabbath Prayer.wav" WAVE
TRACK 02 AUDIO
TITLE "Sabbath Prayer"
PERFORMER "Glenn Ferris, Bruno Rousselet, Ernie Odoom"
ISRC DEAM80900097
INDEX 01 00:00:00
FILE "03 - To You.wav" WAVE
TRACK 03 AUDIO
TITLE "To You"
PERFORMER "Glenn Ferris, Bruno Rousselet, Ernie Odoom"
ISRC DEAM80900098
INDEX 01 00:00:00
FILE "04 - Metrognome.wav" WAVE
TRACK 04 AUDIO
TITLE "Metrognome"
PERFORMER "Glenn Ferris, Bruno Rousselet, Ernie Odoom"
ISRC DEAM80900099
INDEX 01 00:00:00
TRACK 05 AUDIO
TITLE "Ready to Go"
PERFORMER "Glenn Ferris, Bruno Rousselet, Ernie Odoom"
ISRC DEAM80900100
INDEX 00 03:41:00
FILE "05 - Ready to Go.wav" WAVE
INDEX 01 00:00:00
FILE "06 - Like That.wav" WAVE
TRACK 06 AUDIO
TITLE "Like That"
PERFORMER "Glenn Ferris, Bruno Rousselet, Ernie Odoom"
ISRC DEAM80900101
INDEX 01 00:00:00
TRACK 07 AUDIO
TITLE "You Are So Beautiful"
PERFORMER "Glenn Ferris, Bruno Rousselet, Ernie Odoom"
ISRC DEAM80900102
INDEX 00 09:28:00
FILE "07 - You Are So Beautiful.wav" WAVE
INDEX 01 00:00:00
FILE "08 - Whose There - Out There_.wav" WAVE
TRACK 08 AUDIO
TITLE "Whose There - Out There?"
PERFORMER "Glenn Ferris, Bruno Rousselet, Ernie Odoom"
ISRC DEAM80900103
INDEX 01 00:00:00
FILE "09 - Forever Blues.wav" WAVE
TRACK 09 AUDIO
TITLE "Forever Blues "
PERFORMER "Glenn Ferris, Bruno Rousselet, Ernie Odoom"
ISRC DEAM80900104
INDEX 01 00:00:00
Any questions -> support@pro-jazz.com. По всем вопросам пишите -> support@pro-jazz.com
17:54
137
Нет комментариев. Ваш будет первым!