Поиск

(Contemporary Jazz, Plainisphare) [CD] Palomar (Maurizio Bionda, Mathias Demoulin, Julien Charlet, Jean-Philippe Zwahlen + Matthieu Michel, Maurice Magnoni) - Palomar - 1992, FLAC (tracks+.cue), lossless

(Contemporary Jazz, Plainisphare) [CD] Palomar (Maurizio Bionda, Mathias Demoulin, Julien Charlet, Jean-Philippe Zwahlen + Matthieu Michel, Maurice Magnoni) - Palomar - 1992, FLAC (tracks+.cue), lossless
Palomar / Palomar
Жанр: Contemporary Jazz, Plainisphare
Носитель: CD
Страна-производитель диска: Switzerland
Год издания: 1992
Издатель (лейбл): Plainisphare
Номер по каталогу: PL 1267-72
Аудиокодек: FLAC (*.flac)
Тип рипа: tracks+.cue
Битрейт аудио: lossless
Продолжительность: 57:51
Источник (релизер): я
Наличие сканов в содержимом раздачи: нет
Треклист:
1. La Résolution du boiteux (Jean-Philippe Zwahlen) 5:07
2. 125. 6 (Jean-Philippe Zwahlen) 12:52
3. L’ombra (Maurizio Bionda) 5:40
4. PCRL (Jean-Philippe Zwahlen) 3:44
5. Vagues (Mathias Demoulin) 4:33
6. Mara (Jean-Philippe Zwahlen) 4:11
7. Sagitario (Jean-Philippe Zwahlen) 4:47
8. Donna Etrusca (Maurizio Bionda) 13:02
9. Mandelbrot (Mathias Demoulin) 3:53
Enregistré au Studio 11 (RSR Genève).
Maurizio Bionda – Alto Sax
Mathias Demoulin – Bass
Julien Charlet – Drums
Jean-Pilippe Zwahlen – Guit Synths
Guests :
Matthieu Michel – Flugelhorn
Maurice Magnoni – Tenor Sax
 
Лог создания рипа
Exact Audio Copy V1.0 beta 3 from 29. August 2011
EAC extraction logfile from 15. October 2013, 23:33
Palomar / Palomar
Used drive : SlimtypeeNAU508 5 Adapter: 1 ID: 0
Read mode : Secure
Utilize accurate stream : Yes
Defeat audio cache : Yes
Make use of C2 pointers : No
Read offset correction : 6
Overread into Lead-In and Lead-Out : No
Fill up missing offset samples with silence : Yes
Delete leading and trailing silent blocks : No
Null samples used in CRC calculations : Yes
Used interface : Native Win32 interface for Win NT & 2000
Gap handling : Appended to previous track
Used output format : User Defined Encoder
Selected bitrate : 768 kBit/s
Quality : High
Add ID3 tag : No
Command line compressor : C:\Program Files (x86)\Exact Audio Copy\Flac\flac.exe
Additional command line options : -8 -V -T "ARTIST=%artist%" -T "TITLE=%title%" -T "ALBUM=%albumtitle%" -T "DATE=%year%" -T "TRACKNUMBER=%tracknr%" -T "GENRE=%genre%" -T "PERFORMER=%albuminterpret%" -T "COMPOSER=%composer%" %haslyrics%--tag-from-file=LYRICS="%lyricsfile%"%haslyrics% -T "ALBUMARTIST=%albumartist%" -T "DISCNUMBER=%cdnumber%" -T "TOTALDISCS=%totalcds%" -T "TOTALTRACKS=%numtracks%" -T "COMMENT=%comment%" %source% -o %dest%
TOC of the extracted CD
Track | Start | Length | Start sector | End sector
---------------------------------------------------------
1 | 0:00.33 | 5:07.17 | 33 | 23074
2 | 5:07.50 | 12:52.30 | 23075 | 81004
3 | 18:00.05 | 5:40.35 | 81005 | 106539
4 | 23:40.40 | 3:44.15 | 106540 | 123354
5 | 27:24.55 | 4:32.63 | 123355 | 143817
6 | 31:57.43 | 4:10.67 | 143818 | 162634
7 | 36:08.35 | 4:46.70 | 162635 | 184154
8 | 40:55.30 | 13:02.10 | 184155 | 242814
9 | 53:57.40 | 3:53.33 | 242815 | 260322
Track 1
Filename C:\EAC rips\01 - La Résolution du boiteux.wav
Pre-gap length 0:00:02.33
Peak level 87.4 %
Extraction speed 1.1 X
Track quality 100.0 %
Test CRC CC2D6BA8
Copy CRC CC2D6BA8
Track not present in AccurateRip database
Copy OK
Track 2
Filename C:\EAC rips\02 - 125. 6.wav
Pre-gap length 0:00:04.00
Peak level 90.0 %
Extraction speed 1.4 X
Track quality 100.0 %
Test CRC 57A262A0
Copy CRC 57A262A0
Track not present in AccurateRip database
Copy OK
Track 3
Filename C:\EAC rips\03 - L'ombra.wav
Pre-gap length 0:00:04.00
Peak level 67.3 %
Extraction speed 1.6 X
Track quality 100.0 %
Test CRC FEDCB4FF
Copy CRC FEDCB4FF
Track not present in AccurateRip database
Copy OK
Track 4
Filename C:\EAC rips\04 - PCRL.wav
Pre-gap length 0:00:06.00
Peak level 87.3 %
Extraction speed 1.4 X
Track quality 99.9 %
Test CRC 8B9CE7E5
Copy CRC 8B9CE7E5
Track not present in AccurateRip database
Copy OK
Track 5
Filename C:\EAC rips\05 - Vagues.wav
Pre-gap length 0:00:05.00
Peak level 87.3 %
Extraction speed 1.7 X
Track quality 100.0 %
Test CRC D70A2515
Copy CRC D70A2515
Track not present in AccurateRip database
Copy OK
Track 6
Filename C:\EAC rips\06 - Mara.wav
Pre-gap length 0:00:04.00
Peak level 69.8 %
Extraction speed 1.8 X
Track quality 100.0 %
Test CRC 1E26A31E
Copy CRC 1E26A31E
Track not present in AccurateRip database
Copy OK
Track 7
Filename C:\EAC rips\07 - Sagitario.wav
Pre-gap length 0:00:04.00
Peak level 87.4 %
Extraction speed 1.9 X
Track quality 100.0 %
Test CRC FE765758
Copy CRC FE765758
Track not present in AccurateRip database
Copy OK
Track 8
Filename C:\EAC rips\08 - Donna Etrusca.wav
Pre-gap length 0:00:04.00
Peak level 74.5 %
Extraction speed 2.2 X
Track quality 100.0 %
Test CRC 6A5E26AD
Copy CRC 6A5E26AD
Track not present in AccurateRip database
Copy OK
Track 9
Filename C:\EAC rips\09 - Mandelbrot.wav
Pre-gap length 0:00:10.00
Peak level 91.1 %
Extraction speed 2.1 X
Track quality 100.0 %
Test CRC 2AC52648
Copy CRC 2AC52648
Track not present in AccurateRip database
Copy OK
None of the tracks are present in the AccurateRip database
No errors occurred
End of status report
---- CUETools DB Plugin V2.1.4
[CTDB TOCID: Jze4txcSySO6Cy.FQWhxT72VC_U-] disk not present in database
Submit result: La demande a été abandonnée : La demande a été annulée.
==== Log checksum 74BCB3E5FE537B0838DA45636F3B5E6912E1E640D2A41D7A57B1A5CDFD20C8D0 ====
 
Содержание индексной карты (.CUE)
REM GENRE Jazz
REM DATE 1992
REM DISCID 740D8E09
REM COMMENT "ExactAudioCopy v1.0b3"
PERFORMER "Palomar"
TITLE "Palomar"
FILE "01 - La Résolution du boiteux.wav" WAVE
TRACK 01 AUDIO
TITLE "La Résolution du boiteux"
PERFORMER "Palomar"
PREGAP 00:00:33
INDEX 01 00:00:00
TRACK 02 AUDIO
TITLE "125. 6"
PERFORMER "Palomar"
INDEX 00 05:03:17
FILE "02 - 125. 6.wav" WAVE
INDEX 01 00:00:00
TRACK 03 AUDIO
TITLE "L'ombra"
PERFORMER "Palomar"
INDEX 00 12:48:30
FILE "03 - L'ombra.wav" WAVE
INDEX 01 00:00:00
TRACK 04 AUDIO
TITLE "PCRL"
PERFORMER "Palomar"
INDEX 00 05:34:35
FILE "04 - PCRL.wav" WAVE
INDEX 01 00:00:00
TRACK 05 AUDIO
TITLE "Vagues"
PERFORMER "Palomar"
INDEX 00 03:39:15
FILE "05 - Vagues.wav" WAVE
INDEX 01 00:00:00
TRACK 06 AUDIO
TITLE "Mara"
PERFORMER "Palomar"
INDEX 00 04:28:63
FILE "06 - Mara.wav" WAVE
INDEX 01 00:00:00
TRACK 07 AUDIO
TITLE "Sagitario"
PERFORMER "Palomar"
INDEX 00 04:06:67
FILE "07 - Sagitario.wav" WAVE
INDEX 01 00:00:00
TRACK 08 AUDIO
TITLE "Donna Etrusca"
PERFORMER "Palomar"
INDEX 00 04:42:70
FILE "08 - Donna Etrusca.wav" WAVE
INDEX 01 00:00:00
TRACK 09 AUDIO
TITLE "Mandelbrot"
PERFORMER "Palomar"
INDEX 00 12:52:10
FILE "09 - Mandelbrot.wav" WAVE
INDEX 01 00:00:00
21:07
335
Нет комментариев. Ваш будет первым!