Вы используете незарегистрированную версию компонента "Вкладки"!

Поиск

(Free Improvisation) [CD] Quat Quartet (Els Vandeweyer, Fred Van Hove, Paul Lovens, Martin Blume) - Live at Hasselt - 2013, FLAC (tracks+.cue), lossless

(Free Improvisation) [CD] Quat Quartet (Els Vandeweyer, Fred Van Hove, Paul Lovens, Martin Blume) - Live at Hasselt - 2013, FLAC (tracks+.cue), lossless
Треклист:
Quat Quartet
Vandeweyer / Van Hove / Lovens / Blume - Live at Hasselt
Жанр: Free Improvisation
Носитель: CD
Страна-производитель диска: Lithuania
Год издания: 2013
Издатель (лейбл): NoBusiness Records
Номер по каталогу: NBCD 54
Аудиокодек: FLAC (*.flac)
Тип рипа: tracks+.cue
Битрейт аудио: lossless
Продолжительность: 00:58:46
Источник (релизер): nnm, Джаз Клуб, 2 декабря, 2013 / спасибо mishka1981
Наличие сканов в содержимом раздачи: да
Треклист:
1. H1 (21:37)
2. H2 (13:59)
3. H3 (16:12)
4. H4 (07:00)
All compositions by van Hove / Vandweyer / Lovens / Blume
Доп. информация:
Musicians:
ELS VANDEWEYER - vibraphone
FRED VAN HOVE - piano, accordion
PAUL LOVENS - percussion
MARTIN BLUME - percussion
Recorded 18th June, 2011 at Kunstencentrumbelgië, Hasselt, Belgium
QUAT - Live at Hasselt nobusinessrecords.com
ELS VANDEWEYER Official Site
ELS VANDEWEYER from Wikipedia, the free encyclopedia
FRED VAN HOVE from Wikipedia, the free encyclopedia
PAUL LOVENS from Wikipedia, the free encyclopedia
 
... photo ...
 
... review ...
There is something very striking (pun intended) about the combined sonority of piano and vibraphone: a sharp attack, with rich, mutually sympathetic overtones; delicate interplay within a halo of resonance – a sound of both clarity and diffuseness. This has characterised such diverse ensembles as the Modern Jazz Quartet, the serpentine duos of Chick Corea and Gary Burton in the 1970s, and even Pierre Boulez’s “Sur Incises”, a study in overtones, writ large.
The Quat Quartet has its own, very distinctive voice, generated by what are in essence, four percussionists: Els Vandeweyer (vibraphone), Fred Van Hove (piano/accordion), Paul Lovens (percussion), and Martin Blume (percussion). The last three are seasoned improvisers, who need no special introduction, but Ms Vandeweyer was new to me. She is Belgian, studied classical percussion at the Royal Flemish Conservatory in Antwerp and jazz at the Royal Conservatory of Brussels and Musikhogskule in Oslo, and now lives and works in Berlin, where, according to her myspace entry: “she explores the middle ground between classical, jazz, and free improvised music”. On the basis of this recording, she is as exciting a vibes player as Chicago’s Jason Adasiewicz, and we need to hear a lot more of her.
The quartet were recorded, live at the Belgium Arts Centre in Hasselt, in June 2011, with an excellent piano (sadly, it can make such a difference), sympathetically captured in a beautifully transparent sound, that allows one to relish the full dynamic range of their playing, largely focussed on the upper registers: the soft decay of a cymbal; Van Hove’s scrupulously weighted chords; the fizz of a hi-hat; burnished trills from the vibes, against micro-rhythms in the drums.
On “H1”, the sheer gorgeousness of the quartet’s kaleidoscope of sounds makes an immediate impression – piano and vibes exchange arpeggios, then scurrying runs in a blur of notes – but there is a subtlety in the way the internal balance of the quartet is adjusted, as new ideas are introduced and elaborated.
The use of two percussionists is inspired: there is more than enough room for Lovens and Blume to underpin, punctuate and embellish the texture. On “H2” there is a small gong, muted, then let free to resonate, which plays against the soft resonance of the vibes; the piano’s strings are muted (held), producing a sound that almost parodies the vibes, over which there is an eccentric clockwork pattern on the drums.
This is not a mere academic study of timbre, however. All four revel in the novelty of their sound world, and there is real drama as the music unfolds, then suddenly changes focus. Most importantly, they appreciate the importance of understatement: when to hold back, or drop out. A fine example of the virtuoso listening – a term coined, I think, by Fred Frith – that is at the heart of creative improvisation.
“H3” begins with bubbling vibes, forming a trio of ever more elaborate counterpoint with the percussion – metal to wood, back to metal again. The piano takes over, with a blurred line in the lower registers, gradually unfolding across the whole range of the keyboard, as the music builds to a crescendo, with sparks from the vibes, and then gradually fades, with soft tremolos accompanied by what sound like miniature bells. Van Hove introduces gentle chords on the accordion, as the music ebbs into silence, as if in slow motion.
“H4” is a perkier affair: staccato chords and fractured lines on the piano, a much spikier, non-resonant sound from the vibes, and criss-crossing from the percussion; music that is never allowed to settle.
As to the name of the quartet, I don’t know if this is a contraction of “quatre”; an alternative spelling of the name of an African plant, whose chewed leaves are a stimulant (they do produce an intoxicating sound); or the Frenglish for “what?” – apparently cool in Montreal (please, no); or something else altogether. Not essential, but I’d like to know.
In the meantime, you can hear the quartet in full flow here (the sound is slightly weighted towards the vibes due to the camera position).
~ Colin Green
 
Лог создания рипа
Exact Audio Copy V1.0 beta 1 from 15. November 2010
EAC extraction logfile from 2. December 2013, 14:44
Vandeweyer Van Hove Lovens Blume - Quat / Live at Hasselt
Used drive : TSSTcorpCDDVDW TS-L633A Adapter: 3 ID: 0
Read mode : Secure
Utilize accurate stream : Yes
Defeat audio cache : Yes
Make use of C2 pointers : No
Read offset correction : 6
Overread into Lead-In and Lead-Out : No
Fill up missing offset samples with silence : Yes
Delete leading and trailing silent blocks : No
Null samples used in CRC calculations : Yes
Used interface : Installed external ASPI interface
Gap handling : Appended to previous track
Used output format : User Defined Encoder
Selected bitrate : 896 kBit/s
Quality : High
Add ID3 tag : No
Command line compressor : C:\Program Files\Exact Audio Copy\FLAC\FLAC.EXE
Additional command line options : -8 -V -T "ARTIST=%a" -T "TITLE=%t" -T "ALBUM=%g" -T "DATE=%y" -T "TRACKNUMBER=%n" -T "TOTALTRACKS=%x" -T "GENRE=%m" -T "ALBUMARTIST=%v" -T "ALBUM ARTIST=%v" -T "COMMENT=EAC Secure Mode, Test & Copy, AccurateRip, FLAC -8" %s
TOC of the extracted CD
Track | Start | Length | Start sector | End sector
---------------------------------------------------------
1 | 0:00.00 | 21:38.17 | 0 | 97366
2 | 21:38.17 | 13:59.37 | 97367 | 160328
3 | 35:37.54 | 16:12.55 | 160329 | 233283
4 | 51:50.34 | 7:02.05 | 233284 | 264938
Track 1
Filename C:\MY RIPS\01 - H1.wav
Pre-gap length 0:00:02.00
Peak level 99.1 %
Extraction speed 1.5 X
Track quality 100.0 %
Test CRC DC637D8E
Copy CRC DC637D8E
Track not present in AccurateRip database
Copy OK
Track 2
Filename C:\MY RIPS\02 - H2.wav
Pre-gap length 0:00:02.00
Peak level 98.9 %
Extraction speed 1.9 X
Track quality 100.0 %
Test CRC A665B5CE
Copy CRC A665B5CE
Track not present in AccurateRip database
Copy OK
Track 3
Filename C:\MY RIPS\03 - H3.wav
Pre-gap length 0:00:02.00
Peak level 99.1 %
Extraction speed 2.2 X
Track quality 100.0 %
Test CRC 162332C7
Copy CRC 162332C7
Track not present in AccurateRip database
Copy OK
Track 4
Filename C:\MY RIPS\04 - H4.wav
Pre-gap length 0:00:02.00
Peak level 98.9 %
Extraction speed 1.7 X
Track quality 99.9 %
Test CRC 2977809B
Copy CRC 2977809B
Track not present in AccurateRip database
Copy OK
None of the tracks are present in the AccurateRip database
No errors occurred
End of status report
==== Log checksum 13EEAB644DB4E8395AB2081AC813428763E8BE0DEF016AA0973C297F4D4904CE ====
 
Содержание индексной карты (.CUE)
REM GENRE Jazz
REM DATE 2013
REM DISCID 1C0DCC04
REM COMMENT "ExactAudioCopy v1.0b1"
PERFORMER "Vandeweyer Van Hove Lovens Blume - Quat"
TITLE "Live at Hasselt"
FILE "01 - H1.wav" WAVE
TRACK 01 AUDIO
TITLE "H1"
PERFORMER "Vandeweyer Van Hove Lovens Blume - Quat"
INDEX 01 00:00:00
TRACK 02 AUDIO
TITLE "H2"
PERFORMER "Vandeweyer Van Hove Lovens Blume - Quat"
INDEX 00 21:36:17
FILE "02 - H2.wav" WAVE
INDEX 01 00:00:00
TRACK 03 AUDIO
TITLE "H3"
PERFORMER "Vandeweyer Van Hove Lovens Blume - Quat"
INDEX 00 13:57:37
FILE "03 - H3.wav" WAVE
INDEX 01 00:00:00
TRACK 04 AUDIO
TITLE "H4"
PERFORMER "Vandeweyer Van Hove Lovens Blume - Quat"
INDEX 00 16:10:55
FILE "04 - H4.wav" WAVE
INDEX 01 00:00:00
 
auCDtect Task Manager
-----------------------
DON'T MODIFY THIS FILE
-----------------------
PERFORMER: auCDtect Task Manager, ver. 1.5.1RC6 build 1.5.1.7
Copyright (c) 2008-2010 y-soft. All rights reserved
http://y-soft.org
ANALYZER: auCDtect: CD records authenticity detector, version 0.8.2
Copyright (c) 2004 Oleg Berngardt. All rights reserved.
Copyright (c) 2004 Alexander Djourik. All rights reserved.
FILE: 04 - H4.flac
Size: 40639810 Hash: D16D9C1449712BE771F76AE81FBD5ADA Accuracy: -m0
Conclusion: CDDA 100%
Signature: 0868D7E47141C734863C5E6D61050567B0A1D902
FILE: 03 - H3.flac
Size: 95831117 Hash: 352A9CDDD7E1BA907922B197A06AE70B Accuracy: -m0
Conclusion: CDDA 100%
Signature: 2CC59030BD339A036CC5DAB589B3D0DE07D1E06B
FILE: 02 - H2.flac
Size: 85959007 Hash: 7EC687756758158B301D605A53A6D16C Accuracy: -m0
Conclusion: CDDA 100%
Signature: 076B4F581D5CB5901F3151C82B209855BE1CAA88
FILE: 01 - H1.flac
Size: 133718014 Hash: 54C119112806B5A22FE5E7BCAD6AD6CE Accuracy: -m0
Conclusion: CDDA 100%
Signature: 15CF6AFA7C45E438681499577B2DE813F2E9B699
По всем вопросам пишите личное сообщение пользователю M0p94ok.
21:08
222
Нет комментариев. Ваш будет первым!