Вы используете незарегистрированную версию компонента "Вкладки"!

Поиск

(Post-Bop, Free Improvisation) [CD] Charly Antolini & Charly Augscholl - On the Beat - 1993 (XRCD), FLAC (tracks+.cue), lossless

(Post-Bop, Free Improvisation) [CD] Charly Antolini & Charly Augscholl - On the Beat - 1993 (XRCD), FLAC (tracks+.cue), lossless
Треклист:
Charly Antolini & Charly Augscholl - On the Beat
Жанр: Post-Bop, Free Improvisation
Носитель: CD
Страна-производитель диска: Китай
Год издания: 1994
Издатель (лейбл): Bell Records/XRCD
Аудиокодек: FLAC (*.flac)
Тип рипа: tracks+.cue
Битрейт аудио: lossless
Продолжительность: 63:20
Источник (релизер): kvolik27 (what)
Наличие сканов в содержимом раздачи: да
Треклист:
01. Night Hawk (Augscholl) - 7:18
02. Stella by Starlight (Young) - 5:20
03. Smooth and Mellow (Augscholl-Catulla) - 7:25
04. Drum Fantasy (Antolini) - 8:32
05. Nice Day (Augscholl) - 4:45
06. My Little Suede Shoes (Parker) - 2:54
07. I Let a Song Go Out of My Heart (Ellington) - 5:28
08. Tempus Fugit (Powell) - 4:37
09. Moanin' (Timmons) - 5:49
10. Quiet Nights (Jobim) - 6:09
11. In Walked Bud (Monk) - 5:03
Состав:
Charly Antolini - drums
Charly Augscholl - flute, clarinet, soprano saxophone, tenor saxophone
Fritz Pauer - piano
Niels-Henning Orsted-Pedersen - bass
Recorded at Union Studio, Munich on January 19-20, 1993.
 
Лог создания рипа
Exact Audio Copy V1.0 beta 3 from 29. August 2011
EAC extraction logfile from 21. March 2013, 20:53
Charly Antolini & Charly Augscholl / On the Beat
Used drive : PLEXTOR CD-R PX-W2410A Adapter: 1 ID: 0
Read mode : Secure
Utilize accurate stream : Yes
Defeat audio cache : Yes
Make use of C2 pointers : No
Read offset correction : 98
Overread into Lead-In and Lead-Out : No
Fill up missing offset samples with silence : Yes
Delete leading and trailing silent blocks : No
Null samples used in CRC calculations : Yes
Used interface : Native Win32 interface for Win NT & 2000
Gap handling : Appended to previous track
Used output format : User Defined Encoder
Selected bitrate : 256 kBit/s
Quality : High
Add ID3 tag : No
Command line compressor : C:\Program Files\Exact Audio Copy\FLAC\FLAC.EXE
Additional command line options : -8 -V -T "ARTIST=%artist%" -T "TITLE=%title%" -T "ALBUM=%albumtitle%" -T "DATE=%year%" -T "TRACKNUMBER=%tracknr%" -T "TOTALTRACKS=%numtracks%" -T "GENRE=%genre%" -T "ALBUMARTIST=%albumartist%" -T "ALBUM ARTIST=%albumartist%" -T "COMMENT=EAC Secure Mode, Test & Copy, AccurateRip, FLAC -8" %source%
TOC of the extracted CD
Track | Start | Length | Start sector | End sector
---------------------------------------------------------
1 | 0:00.01 | 7:18.13 | 1 | 32863
2 | 7:18.14 | 5:19.39 | 32864 | 56827
3 | 12:37.53 | 7:25.36 | 56828 | 90238
4 | 20:03.14 | 8:32.01 | 90239 | 128639
5 | 28:35.15 | 4:45.12 | 128640 | 150026
6 | 33:20.27 | 2:53.39 | 150027 | 163040
7 | 36:13.66 | 5:28.35 | 163041 | 187675
8 | 41:42.26 | 4:36.68 | 187676 | 208443
9 | 46:19.19 | 5:49.28 | 208444 | 234646
10 | 52:08.47 | 6:08.50 | 234647 | 262296
11 | 58:17.22 | 5:02.51 | 262297 | 284997
Track 1
Filename D:\EAC\Charly Antolini & Charly Augscholl - On the Beat (1994 XRCD24 CH) [FLAC]\01 - Night Hawk.wav
Pre-gap length 0:00:02.01
Peak level 100.0 %
Extraction speed 3.7 X
Track quality 100.0 %
Test CRC C26445BF
Copy CRC C26445BF
Accurately ripped (confidence 1) [CBD16686] (AR v1)
Copy OK
Track 2
Filename D:\EAC\Charly Antolini & Charly Augscholl - On the Beat (1994 XRCD24 CH) [FLAC]\02 - Stella By Starlight.wav
Peak level 87.1 %
Extraction speed 3.6 X
Track quality 100.0 %
Test CRC ED3C5385
Copy CRC ED3C5385
Accurately ripped (confidence 1) [D1D847C7] (AR v1)
Copy OK
Track 3
Filename D:\EAC\Charly Antolini & Charly Augscholl - On the Beat (1994 XRCD24 CH) [FLAC]\03 - Smooth And Mellow.wav
Peak level 77.3 %
Extraction speed 3.7 X
Track quality 100.0 %
Test CRC CD3C58EC
Copy CRC CD3C58EC
Accurately ripped (confidence 1) [929EEED6] (AR v1)
Copy OK
Track 4
Filename D:\EAC\Charly Antolini & Charly Augscholl - On the Beat (1994 XRCD24 CH) [FLAC]\04 - Drum Fantasy.wav
Peak level 100.0 %
Extraction speed 3.8 X
Track quality 100.0 %
Test CRC A6BB9513
Copy CRC A6BB9513
Accurately ripped (confidence 1) [86E571D4] (AR v1)
Copy OK
Track 5
Filename D:\EAC\Charly Antolini & Charly Augscholl - On the Beat (1994 XRCD24 CH) [FLAC]\05 - Nice Day.wav
Peak level 81.2 %
Extraction speed 3.4 X
Track quality 99.9 %
Test CRC D32A4B5E
Copy CRC D32A4B5E
Accurately ripped (confidence 1) [EE2C0A85] (AR v1)
Copy OK
Track 6
Filename D:\EAC\Charly Antolini & Charly Augscholl - On the Beat (1994 XRCD24 CH) [FLAC]\06 - My Little Suede Shoes.wav
Peak level 73.3 %
Extraction speed 3.6 X
Track quality 100.0 %
Test CRC 1233B9B9
Copy CRC 1233B9B9
Accurately ripped (confidence 1) [D8113A16] (AR v1)
Copy OK
Track 7
Filename D:\EAC\Charly Antolini & Charly Augscholl - On the Beat (1994 XRCD24 CH) [FLAC]\07 - I Let A Song Go Out Of My Heart.wav
Peak level 69.3 %
Extraction speed 3.7 X
Track quality 100.0 %
Test CRC 1C460A94
Copy CRC 1C460A94
Accurately ripped (confidence 1) [F91C0C4A] (AR v1)
Copy OK
Track 8
Filename D:\EAC\Charly Antolini & Charly Augscholl - On the Beat (1994 XRCD24 CH) [FLAC]\08 - Tempus Fugit.wav
Peak level 100.0 %
Extraction speed 3.4 X
Track quality 99.9 %
Test CRC 457926FA
Copy CRC 457926FA
Accurately ripped (confidence 1) [00B8FA59] (AR v1)
Copy OK
Track 9
Filename D:\EAC\Charly Antolini & Charly Augscholl - On the Beat (1994 XRCD24 CH) [FLAC]\09 - Moanin'.wav
Peak level 90.3 %
Extraction speed 3.7 X
Track quality 100.0 %
Test CRC B39E8D23
Copy CRC B39E8D23
Accurately ripped (confidence 1) [9F2FB15E] (AR v1)
Copy OK
Track 10
Filename D:\EAC\Charly Antolini & Charly Augscholl - On the Beat (1994 XRCD24 CH) [FLAC]\10 - Quiet Nights.wav
Peak level 69.2 %
Extraction speed 3.3 X
Track quality 99.9 %
Test CRC 9C7B9AED
Copy CRC 9C7B9AED
Accurately ripped (confidence 1) [B99FD775] (AR v1)
Copy OK
Track 11
Filename D:\EAC\Charly Antolini & Charly Augscholl - On the Beat (1994 XRCD24 CH) [FLAC]\11 - In Walked Bud.wav
Peak level 90.0 %
Extraction speed 3.2 X
Track quality 100.0 %
Test CRC 16E2363C
Copy CRC 16E2363C
Accurately ripped (confidence 1) [3171CCAE] (AR v1)
Copy OK
All tracks accurately ripped
No errors occurred
End of status report
==== Log checksum BBFA8034B7B49C917F3E701B0FCC65256E5A6B24CFCFDE15FDB2EEC70BCFAE78 ====
 
Содержание индексной карты (.CUE)
REM GENRE Jazz
REM DATE 1993
REM DISCID 870ED70B
REM COMMENT "ExactAudioCopy v1.0b3"
PERFORMER "Charly Antolini & Charly Augscholl"
TITLE "On the Beat"
FILE "01 - Night Hawk.wav" WAVE
TRACK 01 AUDIO
TITLE "Night Hawk"
PERFORMER "Charly Antolini & Charly Augscholl"
PREGAP 00:00:01
INDEX 01 00:00:00
FILE "02 - Stella by Starlight.wav" WAVE
TRACK 02 AUDIO
TITLE "Stella by Starlight"
PERFORMER "Charly Antolini & Charly Augscholl"
INDEX 01 00:00:00
FILE "03 - Smooth and Mellow.wav" WAVE
TRACK 03 AUDIO
TITLE "Smooth and Mellow"
PERFORMER "Charly Antolini & Charly Augscholl"
INDEX 01 00:00:00
FILE "04 - Drum Fantasy.wav" WAVE
TRACK 04 AUDIO
TITLE "Drum Fantasy"
PERFORMER "Charly Antolini & Charly Augscholl"
INDEX 01 00:00:00
FILE "05 - Nice Day.wav" WAVE
TRACK 05 AUDIO
TITLE "Nice Day"
PERFORMER "Charly Antolini & Charly Augscholl"
INDEX 01 00:00:00
FILE "06 - My Little Suede Shoes.wav" WAVE
TRACK 06 AUDIO
TITLE "My Little Suede Shoes"
PERFORMER "Charly Antolini & Charly Augscholl"
INDEX 01 00:00:00
FILE "07 - I Let a Song Go Out of My Heart.wav" WAVE
TRACK 07 AUDIO
TITLE "I Let a Song Go Out of My Heart"
PERFORMER "Charly Antolini & Charly Augscholl"
INDEX 01 00:00:00
FILE "08 - Tempus Fugit.wav" WAVE
TRACK 08 AUDIO
TITLE "Tempus Fugit"
PERFORMER "Charly Antolini & Charly Augscholl"
INDEX 01 00:00:00
FILE "09 - Moanin'.wav" WAVE
TRACK 09 AUDIO
TITLE "Moanin'"
PERFORMER "Charly Antolini & Charly Augscholl"
INDEX 01 00:00:00
FILE "10 - Quiet Nights.wav" WAVE
TRACK 10 AUDIO
TITLE "Quiet Nights"
PERFORMER "Charly Antolini & Charly Augscholl"
INDEX 01 00:00:00
FILE "11 - In Walked Bud.wav" WAVE
TRACK 11 AUDIO
TITLE "In Walked Bud"
PERFORMER "Charly Antolini & Charly Augscholl"
INDEX 01 00:00:00
 
Отчет CUETools
[CUETools log; Date: 02.12.2013 23:47:58; Version: 2.1.4]
Pregap length 00:00:01.
[CTDB TOCID: 8yv_5PN8KkSKlJwM.MzsIw_YO9A-] found.
Track | CTDB Status
1 | (1/1) Accurately ripped
2 | (1/1) Accurately ripped
3 | (1/1) Accurately ripped
4 | (1/1) Accurately ripped
5 | (1/1) Accurately ripped
6 | (1/1) Accurately ripped
7 | (1/1) Accurately ripped
8 | (1/1) Accurately ripped
9 | (1/1) Accurately ripped
10 | (1/1) Accurately ripped
11 | (1/1) Accurately ripped
[AccurateRip ID: 001b7616-00e9a057-870ed70b] found.
Track [ CRC | V2 ] Status
01 [cbd16686|c1a86d9d] (1+1/2) Accurately ripped
02 [d1d847c7|751d29f9] (1+1/2) Accurately ripped
03 [929eeed6|3b4e0925] (1+1/2) Accurately ripped
04 [86e571d4|737cf567] (1+1/2) Accurately ripped
05 [ee2c0a85|ae9fa3e5] (1+1/2) Accurately ripped
06 [d8113a16|5729149e] (1+1/2) Accurately ripped
07 [f91c0c4a|73eab140] (1+1/2) Accurately ripped
08 [00b8fa59|2373b76d] (1+1/2) Accurately ripped
09 [9f2fb15e|5b361558] (1+1/2) Accurately ripped
10 [b99fd775|16a400e8] (1+1/2) Accurately ripped
11 [3171ccae|0d261056] (1+1/2) Accurately ripped
Track Peak [ CRC32 ] [W/O NULL] [ LOG ]
-- 100,0 [188DFC09] [28C5CDBF]
01 100,0 [C26445BF] [82577F15] CRC32
02 87,1 [ED3C5385] [4A187FAF] CRC32
03 77,3 [CD3C58EC] [1AADE359] CRC32
04 100,0 [A6BB9513] [C0A468AD] CRC32
05 81,2 [D32A4B5E] [69BAE744] CRC32
06 73,3 [1233B9B9] [53FB0AFE] CRC32
07 69,3 [1C460A94] [4E63030B] CRC32
08 100,0 [457926FA] [E5512BCB] CRC32
09 90,3 [B39E8D23] [02A36F99] CRC32
10 69,2 [9C7B9AED] [78620B28] CRC32
11 90,0 [16E2363C] [873111C5] CRC32
Any questions -> support@pro-jazz.com. По всем вопросам пишите -> support@pro-jazz.com
21:06
286
Нет комментариев. Ваш будет первым!