Вы используете незарегистрированную версию компонента "Вкладки"!

Поиск

(Contemporary Jazz, Modern Jazz) David Murray - Spirituals - 1990, FLAC (image+.cue), lossless

(Contemporary Jazz, Modern Jazz) David Murray - Spirituals - 1990, FLAC (image+.cue), lossless
Треклист:
David Murray / Spirituals
Жанр: Contemporary Jazz, Modern Jazz
Страна-производитель диска: Japan
Год издания диска: 1990
Издатель (лейбл): DIW
Номер по каталогу: DIW-841
Страна: USA
Аудиокодек: FLAC (*.flac)
Тип рипа: image+.cue
Битрейт аудио: lossless
Продолжительность: 48:35
Источник (релизер): CD
Наличие сканов в содержимом раздачи: да
Треклист:
01 - Amazing Grace (trad.) (5:40)
02 - Dave Blue (7:47)
03 - Blues For My Sisters (8:12)
04 - No Body Knows The Trouble I've Seen - Down By The Riverside (trad.) (4:21)
05 - Sunlit On A Dark Afternoon (6:28)
06 - Crucifixion (trad.) (5:21)
07 - Abel's Blissed Out Blues (10:27)
 
Лог создания рипа
Exact Audio Copy V1.0 beta 2 from 29. April 2011
EAC extraction logfile from 20. July 2011, 11:01
David Murray / Spirituals
Used drive : Optiarc DVD RW AD-7240S Adapter: 2 ID: 0
Read mode : Secure
Utilize accurate stream : Yes
Defeat audio cache : Yes
Make use of C2 pointers : No
Read offset correction : 48
Overread into Lead-In and Lead-Out : No
Fill up missing offset samples with silence : Yes
Delete leading and trailing silent blocks : No
Null samples used in CRC calculations : Yes
Used interface : Native Win32 interface for Win NT & 2000
Used output format : User Defined Encoder
Selected bitrate : 768 kBit/s
Quality : High
Add ID3 tag : No
Command line compressor : C:\Program Files\Exact Audio Copy\FLAC\FLAC.EXE
Additional command line options : -6 -V -T "ARTIST=%artist%" -T "TITLE=%title%" -T "ALBUM=%albumtitle%" -T "DATE=%year%" -T "TRACKNUMBER=%tracknr%" -T "GENRE=%genre%" -T "COMMENT=%comment%" -T "BAND=%albuminterpret%" -T "COMPOSER=%composer%" %haslyrics%--ta
TOC of the extracted CD
Track | Start | Length | Start sector | End sector
---------------------------------------------------------
1 | 0:00.00 | 5:43.27 | 0 | 25751
2 | 5:43.27 | 7:50.28 | 25752 | 61029
3 | 13:33.55 | 8:15.20 | 61030 | 98174
4 | 21:49.00 | 4:24.00 | 98175 | 117974
5 | 26:13.00 | 6:30.50 | 117975 | 147274
6 | 32:43.50 | 5:23.40 | 147275 | 171539
7 | 38:07.15 | 10:27.22 | 171540 | 218586
Range status and errors
Selected range
Filename C:\Documents and Settings\User\Мои документы\David Murray - Spirituals (1990)\David Murray - Spirituals.wav
Peak level 99.2 %
Extraction speed 4.0 X
Range quality 100.0 %
Test CRC A7A9D4A7
Copy CRC A7A9D4A7
Copy OK
No errors occurred
AccurateRip summary
Track 1 cannot be verified as accurate (confidence 3) [009C89E8], AccurateRip returned [5E38E1E7] (AR v2)
Track 2 cannot be verified as accurate (confidence 3) [D9BF88A9], AccurateRip returned [CAC49621] (AR v2)
Track 3 cannot be verified as accurate (confidence 3) [E3CE69B4], AccurateRip returned [A750C8F0] (AR v2)
Track 4 cannot be verified as accurate (confidence 3) [E1732537], AccurateRip returned [65881696] (AR v2)
Track 5 cannot be verified as accurate (confidence 3) [DE2F9E6E], AccurateRip returned [D904C441] (AR v2)
Track 6 cannot be verified as accurate (confidence 3) [486428CC], AccurateRip returned [5D6D9AEE] (AR v2)
Track 7 cannot be verified as accurate (confidence 3) [0F13B0AE], AccurateRip returned [1A4D71CC] (AR v2)
No tracks could be verified as accurate
You may have a different pressing from the one(s) in the database
End of status report
==== Log checksum 2E4177BA2418633CBC0C4B006315C97F701FC909D7790D45033F803A3EF7D33E ====
 
Содержание индексной карты (.CUE)
REM GENRE Jazz
REM DATE 1990
REM DISCID 5E0B6207
REM COMMENT "ExactAudioCopy v1.0b2"
PERFORMER "David Murray"
TITLE "Spirituals"
FILE "David Murray - Spirituals.flac" WAVE
TRACK 01 AUDIO
TITLE "Amazing Grace"
PERFORMER "David Murray"
INDEX 01 00:00:00
TRACK 02 AUDIO
TITLE "Dave Blue"
PERFORMER "David Murray"
INDEX 00 05:40:65
INDEX 01 05:43:27
TRACK 03 AUDIO
TITLE "Blues For My Sisters (For Barbara & Michelle)"
PERFORMER "David Murray"
INDEX 00 13:31:18
INDEX 01 13:33:55
TRACK 04 AUDIO
TITLE "Nobody Knows The Trouble I've Seen - Down By The Riverside"
PERFORMER "David Murray"
INDEX 00 21:46:38
INDEX 01 21:49:00
TRACK 05 AUDIO
TITLE "Sunlit on a Dark Afternoon"
PERFORMER "David Murray"
INDEX 00 26:10:38
INDEX 01 26:13:00
TRACK 06 AUDIO
TITLE "Crucifixion"
PERFORMER "David Murray"
INDEX 00 32:41:13
INDEX 01 32:43:50
TRACK 07 AUDIO
TITLE "Abe's Blessed Out Blues"
PERFORMER "David Murray"
INDEX 00 38:04:53
INDEX 01 38:07:15
 
Об альбоме (сборнике)
David Murray mostly sticks to spirituals on this Japanese import, a quartet outing with pianist Dave Burrell, bassist Fred Hopkins and drummer Ralph Peterson, but that does not mean that all of the improvising is mellow and melodic. There are some peaceful moments on tunes such as "Amazing Grace" and a spirited "Down by the Riverside," but Murray's playing is so violent on "Abel's Blissed Out Blues" as to be almost satirical. A mixed success from the masterful tenor.
 
Состав
David Murray - tenor saxophone
Dave Burrel - piano
Fred Hopkins - bass
Ralph Peterson Jr. - drums
Any questions -> support@pro-jazz.com. По всем вопросам пишите -> support@pro-jazz.com
15:05
166
Нет комментариев. Ваш будет первым!