Вы используете незарегистрированную версию компонента "Вкладки"!

Поиск

(Free Jazz, Modern Creative, Hat Hut) Ton-Art - 2 albums: Zu - 1989, Mal Vu. Mal Dit. - 1991, FLAC (image+.cue), lossless

(Free Jazz, Modern Creative, Hat Hut) Ton-Art - 2 albums: Zu - 1989, Mal Vu. Mal Dit. - 1991, FLAC (image+.cue), lossless
Треклист:
Ton-Art / 2 albums
Жанр: Free Jazz, Modern Creative
Страна-производитель диска: Switzerland
Год издания диска: 1989-1991
Издатель (лейбл): Hat Hut
Номер по каталогу: hat ART CD 6034 / hat ART CD 6088
Страна: Germany
Аудиокодек: FLAC (*.flac)
Тип рипа: image+.cue
Битрейт аудио: lossless
Продолжительность: 1:08:04 + 1:11:05
Источник (релизер): CD
Наличие сканов в содержимом раздачи: да
 
Ton-Art (1989) - Zu


 
Треклист
01 - Der Tod meiner kleinen Anarchistin
02 - Fragment I
03 - Fragment II
04 - Sou
05 - Das sechste Gebot
06 - Es webert schon am Koglberg
07 - Sieben billige Handschuhtage
08 - Deadline
09 - Was will das Gespenst
10 - Notorisch Hippopotamus
11 - Sternspritzer im Ohr: Reihenweise
 
Состав
Klaus Peham - trumpet & flugelhorn
Bernhard Spahn - alto saxophone
Johann Karl Steiner - bass clarinet
Burkhard Staghl - guitar
Werner Dafeldecker - bass
Paul Skrepek - drums
Franz Koglmann - flugelhorn (on Sou only)
 
Об альбоме
Ton-Art's music grows directly out of everything that ever was in jazz and European music. Period. A lot of people try this, and a lot of bands are successful at it to some degree, Franz Koglmann for one - the heart of this unit, Burkhard Stangl, is his guitarist - who began this investigation into creating something new out of the tatters of old signatory systems. Ton-Art have upped that ante by combining everything at once and trying to alter the very identities they've adopted for their determinedly cross-purposes. The opening track, "Der Tod Meiner Kleinen Anarchistin," by bass clarinet chair Johan Karl Steiner, holds the early Ellington-ian harmonic arrangement up to the flame of Berg's overture to Lulu and pushes it through the eye of the harmonic counterpoint needle first threaded by Jimmy Giuffre. But as a sextet, this isn't good enough; there have to be free jazz strains of 12 tone rows abutted against dodecaphonic avant-garde-ism. Then, on top of this, on "Das Seschste Gebot" (Steiner again) mutilates Anton Webern's violin concerto - at least the initial fifths - and turns their near-lyrical grace in against themselves in a cacophony of jazz aggression and honking almost Ike Quebec style. So what to make of all this Euro twaddle calling itself art? Call it artful, call it artless, and call it garbage if you want to, but you'll never extinguish the heartfelt, humor, virtuosic sophistication, or musical genius that is Ton-Art. This is music of a caliber that transcends its collage pretensions and program music tomfoolery. Here are all the musical structures of Western culture placed in the context of conflict without hope for resolution, with the only bridge between them being improvisation and the will of a collective of composers who know their stuff cold. They can mix it, because the match is in the setting up of conflict for the sake of meaning, not resolution, whether it be in jazz, classical "new music," or the poetry of improvisation. Ton-Art have, along with Koglmann who blazed the trail, set a new paradigm; not only for examining a past that is coughing up its last breath, but for a future that preserves relics by coloring them with the shapes, tones, and languages of others.
 
Лог создания рипа
Exact Audio Copy V1.0 beta 2 from 29. April 2011
EAC extraction logfile from 18. July 2011, 14:48
Ton Art / Zu
Used drive : Optiarc DVD RW AD-7240S Adapter: 2 ID: 0
Read mode : Secure
Utilize accurate stream : Yes
Defeat audio cache : Yes
Make use of C2 pointers : No
Read offset correction : 48
Overread into Lead-In and Lead-Out : No
Fill up missing offset samples with silence : Yes
Delete leading and trailing silent blocks : No
Null samples used in CRC calculations : Yes
Used interface : Native Win32 interface for Win NT & 2000
Used output format : User Defined Encoder
Selected bitrate : 768 kBit/s
Quality : High
Add ID3 tag : No
Command line compressor : C:\Program Files\Exact Audio Copy\FLAC\FLAC.EXE
Additional command line options : -6 -V -T "ARTIST=%artist%" -T "TITLE=%title%" -T "ALBUM=%albumtitle%" -T "DATE=%year%" -T "TRACKNUMBER=%tracknr%" -T "GENRE=%genre%" -T "COMMENT=%comment%" -T "BAND=%albuminterpret%" -T "COMPOSER=%composer%" %haslyrics%--ta
TOC of the extracted CD
Track | Start | Length | Start sector | End sector
---------------------------------------------------------
1 | 0:00.00 | 13:04.62 | 0 | 58861
2 | 13:04.62 | 1:09.65 | 58862 | 64101
3 | 14:14.52 | 0:33.68 | 64102 | 66644
4 | 14:48.45 | 3:48.55 | 66645 | 83799
5 | 18:37.25 | 10:35.27 | 83800 | 131451
6 | 29:12.52 | 9:39.10 | 131452 | 174886
7 | 38:51.62 | 3:45.00 | 174887 | 191761
8 | 42:36.62 | 11:36.00 | 191762 | 243961
9 | 54:12.62 | 4:26.00 | 243962 | 263911
10 | 58:38.62 | 1:37.00 | 263912 | 271186
11 | 60:15.62 | 7:48.13 | 271187 | 306299
Range status and errors
Selected range
Filename C:\Documents and Settings\User\Мои документы\Ton Art - Zu (1989)\Ton Art - Zu.wav
Peak level 100.0 %
Extraction speed 4.4 X
Range quality 100.0 %
Test CRC 3A714DCF
Copy CRC 3A714DCF
Copy OK
No errors occurred
AccurateRip summary
Track 1 not present in database
Track 2 not present in database
Track 3 not present in database
Track 4 not present in database
Track 5 not present in database
Track 6 not present in database
Track 7 not present in database
Track 8 not present in database
Track 9 not present in database
Track 10 not present in database
Track 11 not present in database
None of the tracks are present in the AccurateRip database
End of status report
==== Log checksum 9F88342A2F0180C3701AC031C45111291E03142384376F20998EB09BC7895AE2 ====
 
Содержание индексной карты (.CUE)
REM GENRE Jazz
REM DATE 1989
REM DISCID A00FF40B
REM COMMENT "ExactAudioCopy v1.0b2"
CATALOG 0000000000000
PERFORMER "Ton Art"
TITLE "Zu"
FILE "Ton Art - Zu.flac" WAVE
TRACK 01 AUDIO
TITLE "Der Tod meiner kleinen Anarchisten"
PERFORMER "Ton Art"
INDEX 01 00:00:00
TRACK 02 AUDIO
TITLE "Fragment I"
PERFORMER "Ton Art"
INDEX 00 12:59:00
INDEX 01 13:04:62
TRACK 03 AUDIO
TITLE "Fragment II"
PERFORMER "Ton Art"
INDEX 00 14:13:00
INDEX 01 14:14:52
TRACK 04 AUDIO
TITLE "Sou"
PERFORMER "Ton Art"
INDEX 00 14:44:00
INDEX 01 14:48:45
TRACK 05 AUDIO
TITLE "Das sechste Gebot"
PERFORMER "Ton Art"
INDEX 00 18:33:40
INDEX 01 18:37:25
TRACK 06 AUDIO
TITLE "Es ebert schon am Koglberg"
PERFORMER "Ton Art"
INDEX 00 29:09:00
INDEX 01 29:12:52
TRACK 07 AUDIO
TITLE "Sieben billige Handschutage"
PERFORMER "Ton Art"
INDEX 00 38:47:00
INDEX 01 38:51:62
TRACK 08 AUDIO
TITLE "Deadline"
PERFORMER "Ton Art"
INDEX 00 42:35:00
INDEX 01 42:36:62
TRACK 09 AUDIO
TITLE "Was will das Gespenst"
PERFORMER "Ton Art"
INDEX 00 54:08:00
INDEX 01 54:12:62
TRACK 10 AUDIO
TITLE "Notorisch Hippopotamus"
PERFORMER "Ton Art"
INDEX 00 58:35:00
INDEX 01 58:38:62
TRACK 11 AUDIO
TITLE "Sternspritzer im Ohr- Reihenweise"
PERFORMER "Ton Art"
INDEX 00 60:13:00
INDEX 01 60:15:62
 
Ton-Art (1991) - Mal Vu. Mal Dit.


 
Треклист
01 - Good Luck George Washington & Kim Novak
02 - Metamorphology
03 - Neun Passagen
04 - Suite Pour des Voleurs
05 - Vedute
06 - Die Bralasurende Saravalla
07 - Dada & Bravo
08 - Mal Vu. Mal Dit.
09 - TV Ton-Art
 
Состав
Susanna Heilmayr - baroque oboe, viola
Bernhard Spahn - alto saxophone
Hans Steiner - bass clarinet
Klaus Peham - trumpet & flugelhorn
Tom Varner - french horn
Burkhard Stangl - guitar
Michael Moser - cello
Werner Dafeldecker - bass
Paul Skrepek - drums
 
Об альбоме
Where Ton Art's Zú was an angular mix and match of all the dying music styles of the 20th century whose parts were used to create something new and different, it was still an effort that required the blending of those styles by musicians who had different approaches to them. Here, that sextet with two more years of grafting and extrapolating under their belts has expanded to a nonet, offering more opportunities than ever for cultural and musical terrorism. The group's latest offering is more solid, but less solidly any one thing. The new band adds Michael Moser's cello, Susana Heilmayer on baroque oboe and viola, and Tom Varner on French horn to the septet's alto sax, bass clarinet, bass, drums, trumpet, flugelhorn, and guitar mix. What is revealed on Mal Vu Mal Dit Is not so much the destruction of the rules of any particular game but a band that experiments musically with the rules of any of those games they devise as a whole. So, the CD begins by reaching deeply into 1930s jazz and serial tone rows to make them swing as in "Good Luck George Washington & Kim Novak" by Tom Varner and arranged by Hans Steiner. Here avant-garde improvisation sits atop smattered ostinato muted trumpet figures and glissandi strings and a horn section playing a section of Schöenberg's Moses und Aaron in blues time. The centerpiece of the album is guitarist Burkhard Stangl's "Neun Passages," a jazz work so complex it cannot be contained within the term. The charts are all written for instruments playing at the top of their registers in varying harmonies, with no discernible melodic framework between them. Intermittent passages of improvisation, almost always brief, are layered between repetitious lines and ostinato figures. Shades of Milhaud and Henry Cowell are layered in between swing measures, and Berg makes an appearance next to Bud Powell and "Little Rootie Tootie!." The strange thing is, with all the celebratory jazz, the piece is, for the most part, bleak, moody, and strung with a harmonic counterpoint that extracts almost all the color from its palette. Perhaps this meditation on melancholy results in the free jazz "Suite pur des Voleurs," dedicated to Jean-Luc Godard by Steiner. Here, free blowing and loose, harmonic collages abound, carrying the entire band over into a morass of gorgeous cacophony. Rhythm and meter disappear into the vanishing specters of melodic presences where only tonality and voicings count for expression. By and large, though the charts are more complex and the music more dense, and thus more demanding on listeners to find themselves in the music, Mal Vu Mal Dit is deeply satisfying as a record of changes in how we perceive the relationship between musical history and music, and how deeply fixed our ideas about harmony, melody, and rhythm can be and still allow for angular, even jagged intrusions to widen our perspective.
 
Лог создания рипа
Exact Audio Copy V1.0 beta 2 from 29. April 2011
EAC extraction logfile from 18. July 2011, 15:24
Ton-Art / Mal Vu. Mal Dit.
Used drive : Optiarc DVD RW AD-7240S Adapter: 2 ID: 0
Read mode : Secure
Utilize accurate stream : Yes
Defeat audio cache : Yes
Make use of C2 pointers : No
Read offset correction : 48
Overread into Lead-In and Lead-Out : No
Fill up missing offset samples with silence : Yes
Delete leading and trailing silent blocks : No
Null samples used in CRC calculations : Yes
Used interface : Native Win32 interface for Win NT & 2000
Used output format : User Defined Encoder
Selected bitrate : 768 kBit/s
Quality : High
Add ID3 tag : No
Command line compressor : C:\Program Files\Exact Audio Copy\FLAC\FLAC.EXE
Additional command line options : -6 -V -T "ARTIST=%artist%" -T "TITLE=%title%" -T "ALBUM=%albumtitle%" -T "DATE=%year%" -T "TRACKNUMBER=%tracknr%" -T "GENRE=%genre%" -T "COMMENT=%comment%" -T "BAND=%albuminterpret%" -T "COMPOSER=%composer%" %haslyrics%--ta
TOC of the extracted CD
Track | Start | Length | Start sector | End sector
---------------------------------------------------------
1 | 0:00.00 | 5:09.62 | 0 | 23236
2 | 5:09.62 | 6:07.00 | 23237 | 50761
3 | 11:16.62 | 11:25.00 | 50762 | 102136
4 | 22:41.62 | 9:50.00 | 102137 | 146386
5 | 32:31.62 | 5:23.00 | 146387 | 170611
6 | 37:54.62 | 8:05.00 | 170612 | 206986
7 | 45:59.62 | 7:39.00 | 206987 | 241411
8 | 53:38.62 | 11:01.00 | 241412 | 290986
9 | 64:39.62 | 6:25.13 | 290987 | 319874
Range status and errors
Selected range
Filename C:\Documents and Settings\User\Мои документы\Ton-Art - Mal Vu. Mal Dit. (1991)\Ton-Art - Mal Vu. Mal Dit..wav
Peak level 100.0 %
Extraction speed 4.5 X
Range quality 100.0 %
Test CRC 1EE425AB
Copy CRC 1EE425AB
Copy OK
No errors occurred
AccurateRip summary
Track 1 not present in database
Track 2 not present in database
Track 3 not present in database
Track 4 not present in database
Track 5 not present in database
Track 6 not present in database
Track 7 not present in database
Track 8 not present in database
Track 9 not present in database
None of the tracks are present in the AccurateRip database
End of status report
==== Log checksum 02EC71580E37FAD2EF125AEF7BE6172A6FB2EAC117EFF9E84493E5995F0E6672 ====
 
Содержание индексной карты (.CUE)
REM GENRE Jazz
REM DATE 1991
REM DISCID 7710A909
REM COMMENT "ExactAudioCopy v1.0b2"
PERFORMER "Ton-Art"
TITLE "Mal Vu. Mal Dit."
FILE "Ton-Art - Mal Vu. Mal Dit..flac" WAVE
TRACK 01 AUDIO
TITLE "Good Luck George Washington & Kim Novack"
PERFORMER "Ton-Art"
INDEX 01 00:00:00
TRACK 02 AUDIO
TITLE "Metamorphology"
PERFORMER "Ton-Art"
INDEX 01 05:09:62
TRACK 03 AUDIO
TITLE "Neun Passagen"
PERFORMER "Ton-Art"
INDEX 01 11:16:62
TRACK 04 AUDIO
TITLE "Suite pour des Voleurs"
PERFORMER "Ton-Art"
INDEX 01 22:41:62
TRACK 05 AUDIO
TITLE "Vedute"
PERFORMER "Ton-Art"
INDEX 01 32:31:62
TRACK 06 AUDIO
TITLE "Die bralasurende Saravalla"
PERFORMER "Ton-Art"
INDEX 01 37:54:62
TRACK 07 AUDIO
TITLE "Dada & Bravo"
PERFORMER "Ton-Art"
INDEX 01 45:59:62
TRACK 08 AUDIO
TITLE "Mal Vu. Mal Dit."
PERFORMER "Ton-Art"
INDEX 01 53:38:62
TRACK 09 AUDIO
TITLE "TV-Ton-Art"
PERFORMER "Ton-Art"
INDEX 01 64:39:62
По всем вопросам пишите личное сообщение пользователю M0p94ok.
15:04
307
Нет комментариев. Ваш будет первым!