Вы используете незарегистрированную версию компонента "Вкладки"!

Поиск

(Avant-Garde Jazz, Free Improvisation) Roginski, Masecki, Moretti - 2525252525 - 2008, FLAC (image+.cue), lossless

Треклист:
Roginski, Masecki, Moretti / 2525252525
Жанр: Avant-Garde Jazz, Free Improvisation
Страна-производитель диска: Chlodna, Poland
Год издания диска: 2008
Издатель (лейбл): Lado ABC
Страна: Poland
Аудиокодек: FLAC (*.flac)
Тип рипа: image+.cue
Битрейт аудио: lossless
Продолжительность: 01:17:14
Источник (релизер): SurowyTato
Наличие сканов в содержимом раздачи: да
Треклист:
01. Zacz [0:53]
02. Skutek [9:39]
03. Hacz [8:50]
04. Szin [7:38]
05. Tokad [8:20]
06. A-le! [7:31]
07. Dropsy [7:59]
08. Uolovnol [7:24]
09. Idom [10:58]
10. Nakonieczny [7:55]
 
Лог создания рипа
Exact Audio Copy V0.99 prebeta 5 from 4. May 2009
EAC extraction logfile from 3. October 2010, 0:11
Roginski, Masecki, Moretti / 2525252525
Used drive : PLEXTOR DVDR PX-810SA Adapter: 1 ID: 0
Read mode : Secure
Utilize accurate stream : Yes
Defeat audio cache : Yes
Make use of C2 pointers : No
Read offset correction : 48
Overread into Lead-In and Lead-Out : No
Fill up missing offset samples with silence : Yes
Delete leading and trailing silent blocks : No
Null samples used in CRC calculations : Yes
Used interface : Installed external ASPI interface
Used output format : User Defined Encoder
Selected bitrate : 768 kBit/s
Quality : High
Add ID3 tag : No
Command line compressor : E:\Program Files\Exact Audio Copy\FLAC\FLAC.EXE
Additional command line options : --best -V -T "date=%y" -T "genre=%m" %s
TOC of the extracted CD
Track | Start | Length | Start sector | End sector
---------------------------------------------------------
1 | 0:00.00 | 0:53.59 | 0 | 4033
2 | 0:53.59 | 9:39.54 | 4034 | 47512
3 | 10:33.38 | 8:50.29 | 47513 | 87291
4 | 19:23.67 | 7:38.68 | 87292 | 121709
5 | 27:02.60 | 8:20.32 | 121710 | 159241
6 | 35:23.17 | 7:31.53 | 159242 | 193119
7 | 42:54.70 | 7:59.53 | 193120 | 229097
8 | 50:54.48 | 7:24.52 | 229098 | 262449
9 | 58:19.25 | 10:58.69 | 262450 | 311868
10 | 69:18.19 | 7:55.65 | 311869 | 347558
Range status and errors
Selected range
Filename E:\INCOMING\EAC\Roginski, Masecki, Moretti - 2525252525.wav
Peak level 99.9 %
Range quality 100.0 %
Test CRC D2BC49AA
Copy CRC D2BC49AA
Copy OK
No errors occurred
End of status report
 
Содержание индексной карты (.CUE)
REM GENRE "Avant-Jazz, Free Improvisation"
REM DATE 2008
REM DISCID 74121A0A
REM COMMENT "ExactAudioCopy v0.99pb5"
PERFORMER "Roginski, Masecki, Moretti"
TITLE "2525252525"
FILE "Roginski, Masecki, Moretti - 2525252525.flac" WAVE
TRACK 01 AUDIO
TITLE "Zacz"
PERFORMER "Roginski, Masecki, Moretti"
INDEX 01 00:00:00
TRACK 02 AUDIO
TITLE "Skutek"
PERFORMER "Roginski, Masecki, Moretti"
INDEX 01 00:53:59
TRACK 03 AUDIO
TITLE "Hacz"
PERFORMER "Roginski, Masecki, Moretti"
INDEX 01 10:33:38
TRACK 04 AUDIO
TITLE "Szin"
PERFORMER "Roginski, Masecki, Moretti"
INDEX 01 19:23:67
TRACK 05 AUDIO
TITLE "Tokad"
PERFORMER "Roginski, Masecki, Moretti"
INDEX 01 27:02:60
TRACK 06 AUDIO
TITLE "A-le!"
PERFORMER "Roginski, Masecki, Moretti"
INDEX 01 35:23:17
TRACK 07 AUDIO
TITLE "Dropsy"
PERFORMER "Roginski, Masecki, Moretti"
INDEX 01 42:54:70
TRACK 08 AUDIO
TITLE "Uolovnol"
PERFORMER "Roginski, Masecki, Moretti"
INDEX 01 50:54:48
TRACK 09 AUDIO
TITLE "Idom"
PERFORMER "Roginski, Masecki, Moretti"
INDEX 01 58:19:25
TRACK 10 AUDIO
TITLE "Nakonieczny"
PERFORMER "Roginski, Masecki, Moretti"
INDEX 01 69:18:19
Доп. информация: Limited edition 500 copies
 
Состав
Personnel:
Raphael Roginski - guitar
Marcin Masecki - Wurlitzer, piano
Macio Moretti - drums
По всем вопросам пишите личное сообщение пользователю M0p94ok.
15:06
163
Нет комментариев. Ваш будет первым!