Поиск

(Contemporary Jazz, Modern Creative) Eric Vloeimans' Fugimundi - Live at Yoshi's - 2009, APE (image+.cue), lossless

Треклист:
Eric Vloeimans' Fugimundi - Live at Yoshi's
Жанр: Contemporary Jazz, Modern Creative
Страна-производитель диска: Austria
Год издания диска: 2009
Издатель (лейбл): Challenge Records
Номер по каталогу: CHR70151
Страна: Netherlands
Аудиокодек: APE (*.ape)
Тип рипа: image+.cue
Битрейт аудио: lossless
Продолжительность: 01:01:03
Источник (релизер): redlaad
Наличие сканов в содержимом раздачи: да

Eric Vloeimans (trumpet)
Anton Goudsmit (guitar)
Harmen Fraanje (piano)

01. Corleone [07:56]
02. Wet Feet [03:06]
03. March of the Carpenter Ants [08:24]
04. Ernesto [08:21]
05. Phillip [09:14]
06. Harry Bo [04:37]
07. Fatima [07:29]
08. Somewhere [07:00]
09. Antwan [06:15]

 
Лог создания рипа
EAC extraction logfile from 9. May 2009, 14:05 for CD
Eric Vloeimans' Figimundi / Live at Yoshi's
Used drive : ATAPI DVD W DH16W1P Adapter: 2 ID: 0
Read mode : Secure with NO C2, accurate stream, disable cache
Read offset correction : 6
Overread into Lead-In and Lead-Out : No
Used output format : C:\Program Files\Monkey's Audio\MAC.exe (Monkey's Audio Lossless Encoder)
Normal Lossless Compression
Other options :
Fill up missing offset samples with silence : Yes
Delete leading and trailing silent blocks : No
Native Win32 interface for Win NT & 2000
Range status and errors
Selected range
Filename J:\Data\Muziek\unpacked\Eric Vloeiman's Fugimundi - Live At Yoshi's (by redlaad)\Eric Vloeimans' Figimundi - Eric Vloeimans' Figimundi Live at Yoshi's.wav
Peak level 100.0 %
Range quality 100.0 %
CRC 7CCE8F78
Copy OK
No errors occured
End of status report
 
Содержание индексной карты (.CUE)
REM GENRE Jazz
REM DATE 2009
REM DISCID 7D0EA209
REM COMMENT "ExactAudioCopy v0.95b4"
PERFORMER "Eric Vloeimans' Figimundi"
TITLE "Live at Yoshi's"
FILE "Eric Vloeimans' Figimundi - Eric Vloeimans' Figimundi Live at Yoshi's.ape" WAVE
TRACK 01 AUDIO
TITLE "Corleone"
PERFORMER "Eric Vloeimans' Figimundi"
INDEX 01 00:00:00
TRACK 02 AUDIO
TITLE "Wet Feet"
PERFORMER "Eric Vloeimans' Figimundi"
INDEX 01 07:56:59
TRACK 03 AUDIO
TITLE "March of the Carpenter Ants"
PERFORMER "Eric Vloeimans' Figimundi"
INDEX 01 11:03:30
TRACK 04 AUDIO
TITLE "Ernesto"
PERFORMER "Eric Vloeimans' Figimundi"
INDEX 01 19:27:62
TRACK 05 AUDIO
TITLE "Phillip"
PERFORMER "Eric Vloeimans' Figimundi"
INDEX 01 27:49:15
TRACK 06 AUDIO
TITLE "Harry Bo"
PERFORMER "Eric Vloeimans' Figimundi"
INDEX 01 37:03:35
TRACK 07 AUDIO
TITLE "Fatima"
PERFORMER "Eric Vloeimans' Figimundi"
INDEX 01 41:41:26
TRACK 08 AUDIO
TITLE "Somewhere"
PERFORMER "Eric Vloeimans' Figimundi"
INDEX 01 49:10:71
TRACK 09 AUDIO
TITLE "Antwan"
PERFORMER "Eric Vloeimans' Figimundi"
INDEX 01 56:11:22
По всем вопросам пишите личное сообщение пользователю M0p94ok.
15:56
166
Нет комментариев. Ваш будет первым!