Вы используете незарегистрированную версию компонента "Вкладки"!

Поиск

(Free Jazz, Modern Creative) Jessica Pavone's Army Of Strangers - Jessica Pavone's Army Of Strangers - 2011, FLAC (image+.cue), lossless

(Free Jazz, Modern Creative) Jessica Pavone's Army Of Strangers - Jessica Pavone's Army Of Strangers - 2011, FLAC (image+.cue), lossless
Треклист:
Jessica Pavone's Army Of Strangers / Jessica Pavone's Army Of Strangers
Жанр: Free Jazz, Modern Creative
Страна-производитель диска: US
Год издания диска: 2011
Издатель (лейбл): Porter Records
Номер по каталогу: PRCD - 4052
Страна: US
Аудиокодек: FLAC (*.flac)
Тип рипа: image+.cue
Битрейт аудио: lossless
Продолжительность: 38:10
Источник (релизер): ed2k
Наличие сканов в содержимом раздачи: да
Треклист:
1 Cast of Characters Pavone 4:43
2 Tired Soul Pavone 3:14
3 April Is Over Pavone 4:01
4 Don't Cross My Moon Pavone 3:22
5 Karmic Deservation Pavone 2:11
6 6 Sink Hole Pavone 2:39
7 Apparently, I'm Still Bleeding Pavone 3:51
8 There Won't Be Walking in the Daylight Pavone 6:25
9 A Piece Has Been Released Pavone 3:08
10 Really? Pavone 4:32
 
Лог создания рипа
Exact Audio Copy V1.0 beta 1 from 15. November 2010
EAC extraction logfile from 27. June 2011, 9:10
Jessica Pavone / Army Of Strangers
Used drive : ASUS CRW-5232AX Adapter: 4 ID: 1
Read mode : Secure
Utilize accurate stream : Yes
Defeat audio cache : Yes
Make use of C2 pointers : No
Read offset correction : 6
Overread into Lead-In and Lead-Out : No
Fill up missing offset samples with silence : Yes
Delete leading and trailing silent blocks : No
Null samples used in CRC calculations : Yes
Used interface : Native Win32 interface for Win NT & 2000
Used output format : User Defined Encoder
Selected bitrate : 768 kBit/s
Quality : High
Add ID3 tag : Yes
Command line compressor : C:\Program Files\Exact Audio Copy\FLAC\FLAC.EXE
Additional command line options : -8 -V -T "ARTIST=%a" -T "TITLE=%t" -T "ALBUM=%g" -T "DATE=%y" -T "TRACKNUMBER=%n" -T "GENRE=%m" -T "COMMENT=%e" %j--picture="%i"%j %s -o %d
TOC of the extracted CD
Track | Start | Length | Start sector | End sector
---------------------------------------------------------
1 | 0:00.00 | 4:43.66 | 0 | 21290
2 | 4:43.66 | 3:14.42 | 21291 | 35882
3 | 7:58.33 | 4:01.35 | 35883 | 53992
4 | 11:59.68 | 3:22.06 | 53993 | 69148
5 | 15:21.74 | 2:11.70 | 69149 | 79043
6 | 17:33.69 | 2:39.23 | 79044 | 90991
7 | 20:13.17 | 3:51.34 | 90992 | 108350
8 | 24:04.51 | 6:25.23 | 108351 | 137248
9 | 30:29.74 | 3:08.11 | 137249 | 151359
10 | 33:38.10 | 4:32.42 | 151360 | 171801
Range status and errors
Selected range
Filename D:\TMP_MUSIC\Jessica Pavone - Army Of Strangers (2011) HQShare by egotrsh\Jessica Pavone - Army Of Strangers.wav
Peak level 96.6 %
Extraction speed 0.8 X
Range quality 100.0 %
Test CRC 5A44DB1D
Copy CRC 5A44DB1D
Copy OK
No errors occurred
AccurateRip summary
Track 1 not present in database
Track 2 not present in database
Track 3 not present in database
Track 4 not present in database
Track 5 not present in database
Track 6 not present in database
Track 7 not present in database
Track 8 not present in database
Track 9 not present in database
Track 10 not present in database
None of the tracks are present in the AccurateRip database
End of status report
==== Log checksum 6FD81BD16B18C7616A96470FCE88328A46B905601AB9FC2E60B67A3452EA41A0 ====
 
Содержание индексной карты (.CUE)
REM ACCURATERIPID 000e064a-006fd374-6908f20a
REM GENRE "Avant Garde"
REM DATE 2011
REM DISCID 6908F20A
REM COMMENT EAC Secure Mode, AccurateRip
PERFORMER "Jessica Pavone"
TITLE "Army Of Strangers"
FILE "Jessica Pavone - Army Of Strangers.flac" WAVE
TRACK 01 AUDIO
TITLE "Cast of Characters"
PERFORMER "Jessica Pavone"
INDEX 01 00:00:00
TRACK 02 AUDIO
TITLE "Tired Soul"
PERFORMER "Jessica Pavone"
INDEX 01 04:43:66
TRACK 03 AUDIO
TITLE "April is Over"
PERFORMER "Jessica Pavone"
INDEX 01 07:58:33
TRACK 04 AUDIO
TITLE "Don't Cross My Moon"
PERFORMER "Jessica Pavone"
INDEX 01 11:59:68
TRACK 05 AUDIO
TITLE "Karmic Deservation"
PERFORMER "Jessica Pavone"
INDEX 01 15:21:74
TRACK 06 AUDIO
TITLE "Sink Hole"
PERFORMER "Jessica Pavone"
INDEX 01 17:33:69
TRACK 07 AUDIO
TITLE "Apparently, I'm Still Bleeding"
PERFORMER "Jessica Pavone"
INDEX 01 20:13:17
TRACK 08 AUDIO
TITLE "There Won't Be Walking in the Daylight"
PERFORMER "Jessica Pavone"
INDEX 01 24:04:51
TRACK 09 AUDIO
TITLE "A Piece Has Been Released"
PERFORMER "Jessica Pavone"
INDEX 01 30:29:74
TRACK 10 AUDIO
TITLE "Really?"
PERFORMER "Jessica Pavone"
INDEX 01 33:38:10
 
Лог проверки качества
d:\>d:\aucdtect -d/-m0 d:\zzz\*.wav
auCDtect: CD records authenticity detector, version 0.8.2
Copyright (c) 2004 Oleg Berngardt. All rights reserved.
Copyright (c) 2004 Alexander Djourik. All rights reserved.
------------------------------------------------------------
Processing file: [01. Cast of Characters.wav]
------------------------------------------------------------
This track looks like CDDA with probability 100%
------------------------------------------------------------
Processing file: [02. Tired Soul.wav]
------------------------------------------------------------
This track looks like CDDA with probability 100%
------------------------------------------------------------
Processing file: [03. April is Over.wav]
------------------------------------------------------------
This track looks like CDDA with probability 100%
------------------------------------------------------------
Processing file: [04. Don't Cross My Moon.wav]
------------------------------------------------------------
This track looks like CDDA with probability 100%
------------------------------------------------------------
Processing file: [05. Karmic Deservation.wav]
------------------------------------------------------------
This track looks like CDDA with probability 100%
------------------------------------------------------------
Processing file: [06. Sink Hole.wav]
------------------------------------------------------------
This track looks like CDDA with probability 100%
------------------------------------------------------------
Processing file: [07. Apparently, I'm Still Bleeding.wav]
------------------------------------------------------------
This track looks like CDDA with probability 100%
------------------------------------------------------------
Processing file: [08. There Won't Be Walking in the Daylight.wav]
------------------------------------------------------------
This track looks like CDDA with probability 100%
------------------------------------------------------------
Processing file: [09. A Piece Has Been Released.wav]
------------------------------------------------------------
This track looks like CDDA with probability 100%
------------------------------------------------------------
Processing file: [10. Really.wav]
------------------------------------------------------------
This track looks like CDDA with probability 100%
------------------------------------------------------------
Final Conclusion:
------------------------------------------------------------
These tracks looks like CDDA with probability 100%
Доп. информация:
 
Album Info
An instrumental excursion into the emotions of heartfelt happiness and stirring sorrow, Jessica Pavone breaks new musical ground with 'Army of Strangers'. In structure 'Army of Strangers' is decidedly a rock orientated album with the openness of improv and warmth of instrumentation by Pete Fitzpatrick, guitar; Jonti Siman, bass guitar; Harris Eisenstadt, drums and Jessica Pavone, viola/violin. An active performer in New York City for the past decade, Jessica Pavone has been leading her own bands, has performed in ensembles led by Anthony Braxton, Matthew Welch, Jason Cady and Jeremiah Cymerman, as well as such collective groups as the Mary Halvorson/Jessica Pavone Duo and The Thirteenth Assembly, in addition to receiving grants regularly to compose chamber music.
Recorded and mixed by Marc Urselli at East Side Sound on September 25th and October 10, 2010.
Mastered by Scott Hull
All songs by Jessica Pavone (BMI)
 
Состав
Jessica Pavone: viola (1,2,6,8,9,10), violin (3,4,5,7)
Pete Fitzpatrick: guitar
Jonti Siman: bass guitar
Harris Eisenstadt: drums
Any questions -> support@pro-jazz.com. По всем вопросам пишите -> support@pro-jazz.com
15:56
130
Нет комментариев. Ваш будет первым!