Вы используете незарегистрированную версию компонента "Вкладки"!

Поиск

(Free Improvisation, Minimal, Experimental) Gunter Muller & Steinbruchel - Perspectives - 2005, FLAC (tracks+.cue), lossless

(Free Improvisation, Minimal, Experimental) Gunter Muller & Steinbruchel - Perspectives - 2005, FLAC (tracks+.cue), lossless
Треклист:
Günter Müller & Steinbrüchell - Perspectives
Жанр: Free Improvisation, Minimal, Experimental
Страна-производитель диска: France
Год издания диска: 2005
Издатель (лейбл): List
Номер по каталогу: L6
Аудиокодек: FLAC (*.flac)
Тип рипа: tracks+.cue
Битрейт аудио: lossless
Продолжительность: 71:25
Источник (релизер): microtonne
Наличие сканов в содержимом раздачи: нет
Треклист:
01 Günter Müller – Geneva - Part I 4:54
02 Steinbrüchel* – Geneva - Part I 5:28
03 Günter Müller – Geneva - Part II 5:45
04 Steinbrüchel* – Geneva - Part II 5:52
05 Günter Müller – Berlin 5:46
06 Steinbrüchel* – Berlin 5:32
07 Günter Müller – Paris 5:58
08 Steinbrüchel* – Paris 5:17
09 Günter Müller – Basel 5:03
10 Steinbrüchel* – Basel 4:44
11 Günter Müller – Bologna 6:18
12 Steinbrüchel* – Bologna 5:28
13 Hervé Boghossian – Paris - Aux_ 5:20
All tracks based on live performances between December 03 and May 04, afterwards reworked and processed into individual tracks.
Last track edited and processed from a live recording by the three artists in Paris.
 
Лог создания рипа
Exact Audio Copy V0.99 prebeta 5 from 4. May 2009
EAC extraction logfile from 11. August 2011, 0:47
Gunter Muller & Steinbruchel / Perspectives
Used drive : Optiarc DVD RW AD-7191S Adapter: 1 ID: 0
Read mode : Secure
Utilize accurate stream : Yes
Defeat audio cache : No
Make use of C2 pointers : No
Read offset correction : 6
Overread into Lead-In and Lead-Out : No
Fill up missing offset samples with silence : Yes
Delete leading and trailing silent blocks : No
Null samples used in CRC calculations : Yes
Used interface : Native Win32 interface for Win NT & 2000
Gap handling : Appended to previous track
Used output format : User Defined Encoder
Selected bitrate : 768 kBit/s
Quality : High
Add ID3 tag : No
Command line compressor : C:\Program Files\Exact Audio Copy\FLAC\FLAC.EXE
Additional command line options : -6 -V -T "ARTIST=%a" -T "TITLE=%t" -T "ALBUM=%g" -T "DATE=%y" -T "TRACKNUMBER=%n" -T "GENRE=%m" -T "COMMENT=%e" %s -o %d
TOC of the extracted CD
Track | Start | Length | Start sector | End sector
---------------------------------------------------------
1 | 0:00.00 | 4:54.04 | 0 | 22053
2 | 4:54.04 | 5:28.01 | 22054 | 46654
3 | 10:22.05 | 5:45.34 | 46655 | 72563
4 | 16:07.39 | 5:52.01 | 72564 | 98964
5 | 21:59.40 | 5:45.38 | 98965 | 124877
6 | 27:45.03 | 5:32.02 | 124878 | 149779
7 | 33:17.05 | 5:58.24 | 149780 | 176653
8 | 39:15.29 | 5:16.39 | 176654 | 200392
9 | 44:31.68 | 5:02.68 | 200393 | 223110
10 | 49:34.61 | 4:44.02 | 223111 | 244412
11 | 54:18.63 | 6:18.15 | 244413 | 272777
12 | 60:37.03 | 5:28.01 | 272778 | 297378
13 | 66:05.04 | 5:20.19 | 297379 | 321397
Track 1
Filename C:\EAC_Rips\Gunter Muller & Steinbruchel - Perspectives_2005 [FLAC]\01 - Geneva - Part I.wav
Pre-gap length 0:00:02.00
Peak level 89.1 %
Track quality 100.0 %
Test CRC 7D8676AF
Copy CRC 7D8676AF
Copy OK
Track 2
Filename C:\EAC_Rips\Gunter Muller & Steinbruchel - Perspectives_2005 [FLAC]\02 - Geneva - Part I.wav
Peak level 89.1 %
Track quality 100.0 %
Test CRC 06B3508B
Copy CRC 06B3508B
Copy OK
Track 3
Filename C:\EAC_Rips\Gunter Muller & Steinbruchel - Perspectives_2005 [FLAC]\03 - Geneva - Part II.wav
Peak level 89.1 %
Track quality 100.0 %
Test CRC E613055C
Copy CRC E613055C
Copy OK
Track 4
Filename C:\EAC_Rips\Gunter Muller & Steinbruchel - Perspectives_2005 [FLAC]\04 - Geneva - Part II.wav
Peak level 86.7 %
Track quality 100.0 %
Test CRC 1573E8F2
Copy CRC 1573E8F2
Copy OK
Track 5
Filename C:\EAC_Rips\Gunter Muller & Steinbruchel - Perspectives_2005 [FLAC]\05 - Berlin.wav
Peak level 79.8 %
Track quality 100.0 %
Test CRC 61DC3D81
Copy CRC 61DC3D81
Copy OK
Track 6
Filename C:\EAC_Rips\Gunter Muller & Steinbruchel - Perspectives_2005 [FLAC]\06 - Berlin.wav
Peak level 88.0 %
Track quality 100.0 %
Test CRC 35F148E3
Copy CRC 35F148E3
Copy OK
Track 7
Filename C:\EAC_Rips\Gunter Muller & Steinbruchel - Perspectives_2005 [FLAC]\07 - Paris.wav
Peak level 89.1 %
Track quality 100.0 %
Test CRC 2C4E7824
Copy CRC 2C4E7824
Copy OK
Track 8
Filename C:\EAC_Rips\Gunter Muller & Steinbruchel - Perspectives_2005 [FLAC]\08 - Paris.wav
Peak level 88.6 %
Track quality 100.0 %
Test CRC 51298108
Copy CRC 51298108
Copy OK
Track 9
Filename C:\EAC_Rips\Gunter Muller & Steinbruchel - Perspectives_2005 [FLAC]\09 - Basel.wav
Peak level 89.1 %
Track quality 100.0 %
Test CRC BC225EDB
Copy CRC BC225EDB
Copy OK
Track 10
Filename C:\EAC_Rips\Gunter Muller & Steinbruchel - Perspectives_2005 [FLAC]\10 - Basel.wav
Peak level 89.1 %
Track quality 100.0 %
Test CRC 0CD8F258
Copy CRC 0CD8F258
Copy OK
Track 11
Filename C:\EAC_Rips\Gunter Muller & Steinbruchel - Perspectives_2005 [FLAC]\11 - Bologna.wav
Peak level 89.1 %
Track quality 99.9 %
Test CRC 0F01378B
Copy CRC 0F01378B
Copy OK
Track 12
Filename C:\EAC_Rips\Gunter Muller & Steinbruchel - Perspectives_2005 [FLAC]\12 - Bologna.wav
Peak level 89.1 %
Track quality 100.0 %
Test CRC 36C9C5E6
Copy CRC 36C9C5E6
Copy OK
Track 13
Filename C:\EAC_Rips\Gunter Muller & Steinbruchel - Perspectives_2005 [FLAC]\13 - Paris - Aux_.wav
Peak level 55.7 %
Track quality 100.0 %
Test CRC 8D980A64
Copy CRC 8D980A64
Copy OK
No errors occurred
End of status report
 
Содержание индексной карты (.CUE)
REM DATE 2005
REM DISCID E210BD0D
REM COMMENT "ExactAudioCopy v0.99pb5"
PERFORMER "Gunter Muller & Steinbruchel "
TITLE "Perspectives"
FILE "01 - Geneva - Part I.wav" WAVE
TRACK 01 AUDIO
TITLE "01 - Geneva - Part I"
PERFORMER "Gunter Muller & Steinbruchel "
INDEX 01 00:00:00
FILE "02 - Geneva - Part I.wav" WAVE
TRACK 02 AUDIO
TITLE "02 - Geneva - Part I"
PERFORMER "Gunter Muller & Steinbruchel "
INDEX 01 00:00:00
FILE "03 - Geneva - Part II.wav" WAVE
TRACK 03 AUDIO
TITLE "03 - Geneva - Part II"
PERFORMER "Gunter Muller & Steinbruchel "
INDEX 01 00:00:00
FILE "04 - Geneva - Part II.wav" WAVE
TRACK 04 AUDIO
TITLE "04 - Geneva - Part II"
PERFORMER "Gunter Muller & Steinbruchel "
INDEX 01 00:00:00
FILE "05 - Berlin.wav" WAVE
TRACK 05 AUDIO
TITLE "05 - Berlin"
PERFORMER "Gunter Muller & Steinbruchel "
INDEX 01 00:00:00
FILE "06 - Berlin.wav" WAVE
TRACK 06 AUDIO
TITLE "06 - Berlin"
PERFORMER "Gunter Muller & Steinbruchel "
INDEX 01 00:00:00
FILE "07 - Paris.wav" WAVE
TRACK 07 AUDIO
TITLE "07 - Paris"
PERFORMER "Gunter Muller & Steinbruchel "
INDEX 01 00:00:00
FILE "08 - Paris.wav" WAVE
TRACK 08 AUDIO
TITLE "08 - Paris"
PERFORMER "Gunter Muller & Steinbruchel "
INDEX 01 00:00:00
FILE "09 - Basel.wav" WAVE
TRACK 09 AUDIO
TITLE "09 - Basel"
PERFORMER "Gunter Muller & Steinbruchel "
INDEX 01 00:00:00
FILE "10 - Basel.wav" WAVE
TRACK 10 AUDIO
TITLE "10 - Basel"
PERFORMER "Gunter Muller & Steinbruchel "
INDEX 01 00:00:00
FILE "11 - Bologna.wav" WAVE
TRACK 11 AUDIO
TITLE "11 - Bologna"
PERFORMER "Gunter Muller & Steinbruchel "
INDEX 01 00:00:00
FILE "12 - Bologna.wav" WAVE
TRACK 12 AUDIO
TITLE "12 - Bologna"
PERFORMER "Gunter Muller & Steinbruchel "
INDEX 01 00:00:00
FILE "13 - Paris - Aux_.wav" WAVE
TRACK 13 AUDIO
TITLE "13 - Paris - Aux_"
PERFORMER "Gunter Muller & Steinbruchel "
INDEX 01 00:00:00
По всем вопросам пишите личное сообщение пользователю M0p94ok.
15:57
188
Нет комментариев. Ваш будет первым!