Поиск

(Contemporary Jazz, Latin Jazz, Caribbean) Jacques Schwarz-Bart - Sone Ka-La - 2006, FLAC (image+.cue), lossless

Треклист:
Jacques Schwarz-Bart - Soné Ka-La
Жанр: Contemporary Jazz, Latin Jazz, Caribbean
Год выпуска диска: 2006
Производитель диска: Universal, France
Аудио кодек: FLAC
Тип рипа: image+.cue
Битрейт аудио: lossless
Продолжительность: 1:13:14
Трэклист:
1 Papalé 05:14
2 Soné Ka-La 05:08
3 Love 06:02
4 Toumblak 04:17
5 Ascent 07:56
6 Drum & Bass 05:25
7 Déshabillé 03:51
8 The Chains 01:10
9 Gwoka 07:01
10 Padjanbel 05:18
11 Descent 05:31
12 Pé La 05:25
13 Léwoz 10:51
from eMule
Другие альбомы Jacques Schwarz-Bart:
http://rutracker.org/forum/viewtopic.php?t=2962975
http://rutracker.org/forum/viewtopic.php?t=2954058
 
Credits, Artists
All songs written by Jacques Schwarz-Bart - Bois-Sec music BMI,
Except for "Pé La" (vocal) music by Jacques Schwarz-Bart, lyrics by AdmiralT, "Soné Ka La", written by Jacques Schwarz-Bart and co-written by Henri Debs, "Poem" by Simone Schwarz-Bart on "Lewoz".
Jacques Schwarz-Bart: Tenor and Soprano Saxes, Flute, Guitar on 1, 2, 3, 4, 7, 10, 12, Vocals on 4, 10, Triangle on 1, 12, Mouthdrums on 1, 4, 9, 13.
Lionel Loueke: Guitar, except for 3, 7. Vocals on 9.
Milan Milanovic: Piano and Rhodes
Mark Kelley: Bass on 1, 2, 3, 4, 6, 10, 12
Patrice Blanchard: Bass on 7 & 9
Vicente Archer: Acoustic Bass on 5 & 11
Sonny Troupé: Markè drums, Mouth drums, Chacha except for 6, 10, 11
Olivier Juste: Boula Drums, Mouth drums, Chacha, except for 6 & 11
Abou Diarrassouba: Djembe on 6 & 11, Mouthdrums on 13
Daniel Sadownik: Djembe on 6, Congas on 11, Toy Percussions on 3, 5, 10, 11, Mouth drums on 13
Simone Schwarz-Bart: Voice and poetry on 13
Stephanie McKay: Lead vocal on 3
Jean-Pierre Coquerel: Lead vocal on 4 & 9, Mouth drums on 2 & 4
Jacob Desvarieux: Lead Vocal on 7
Admiral T: Lead vocal on 12
Recorded at Sytems Two, Brooklyn NY - Brother Jacques’ Studio, East Harlem NY - Daniel Trépy’s Studio, Guadeloupe
Produced by Robert Sadin and Jacques Schwarz-Bart

 
Log EAC
EAC extraction logfile from 24. March 2007, 6:52 for CD
Jacques Schwarz - Bart / Son� Ka-La
Used drive : TSSTcorpCD/DVDW TS-H652L Adapter: 3 ID: 0
Read mode : Secure with NO C2, accurate stream, disable cache
Read offset correction : 6
Overread into Lead-In and Lead-Out : No
Used output format : Internal WAV Routines
44.100 Hz; 16 Bit; Stereo
Use compression offset : 6
Other options :
Fill up missing offset samples with silence : Yes
Delete leading and trailing silent blocks : No
Installed external ASPI interface
Range status and errors
Selected range
Filename C:\Documents and Settings\HP_Propri�taire\Bureau\Jacques Schwarz - Bart - Son� Ka-La.wav
Peak level 100.0 %
Range quality 100.0 %
CRC 4CAE784D
Copy OK
No errors occured
End of status report
------------------------------------------------------------
EAC extraction logfile from 24. March 2007, 6:53 for CD
Jacques Schwarz - Bart / Son� Ka-La
Used drive : TSSTcorpCD/DVDW TS-H652L Adapter: 3 ID: 0
Read mode : Secure with NO C2, accurate stream, disable cache
Read offset correction : 6
Overread into Lead-In and Lead-Out : No
Used output format : Internal WAV Routines
44.100 Hz; 16 Bit; Stereo
Use compression offset : 6
Other options :
Fill up missing offset samples with silence : Yes
Delete leading and trailing silent blocks : No
Installed external ASPI interface
Range status and errors
Selected range
Filename C:\Documents and Settings\HP_Propri�taire\Bureau\Jacques Schwarz - Bart - Son� Ka-La.wav
Peak level 100.0 %
Range quality 100.0 %
CRC 4CAE784D
Copy OK
No errors occured
End of status report
 
Cue
REM GENRE Jazz
REM DATE 2006
REM DISCID B8112A0D
REM COMMENT "ExactAudioCopy v0.95b4"
CATALOG 0602498401118
PERFORMER "Jacques Schwarz - Bart"
TITLE "Son� Ka-La"
FILE "Jacques Schwarz - Bart - Son� Ka-La.wav" WAVE
TRACK 01 AUDIO
TITLE "Papal�"
PERFORMER "Jacques Schwarz - Bart"
ISRC FRY@20581410
INDEX 01 00:00:00
TRACK 02 AUDIO
TITLE "Son� Ka-La"
PERFORMER "Jacques Schwarz - Bart"
ISRC FRY@20581400
INDEX 01 05:14:52
TRACK 03 AUDIO
TITLE "Love"
PERFORMER "Jacques Schwarz - Bart"
ISRC FRY@20581420
INDEX 00 10:23:17
INDEX 01 10:23:34
TRACK 04 AUDIO
TITLE "Toumblak"
PERFORMER "Jacques Schwarz - Bart"
ISRC FRY@20581430
INDEX 00 16:24:28
INDEX 01 16:25:59
TRACK 05 AUDIO
TITLE "Ascent"
PERFORMER "Jacques Schwarz - Bart"
ISRC FRY@20581440
INDEX 00 20:41:14
INDEX 01 20:43:26
TRACK 06 AUDIO
TITLE "Drum & Bass"
PERFORMER "Jacques Schwarz - Bart"
ISRC FRY@20581450
INDEX 00 28:38:26
INDEX 01 28:39:30
TRACK 07 AUDIO
TITLE "D�shabill�"
PERFORMER "Jacques Schwarz - Bart"
ISRC FRY@20581460
INDEX 00 34:02:09
INDEX 01 34:04:37
TRACK 08 AUDIO
TITLE "The Chains"
PERFORMER "Jacques Schwarz - Bart"
ISRC FRY@20581470
INDEX 01 37:56:03
TRACK 09 AUDIO
TITLE "Gwoka"
PERFORMER "Jacques Schwarz - Bart"
ISRC FRY@20581480
INDEX 01 39:06:21
TRACK 10 AUDIO
TITLE "Padjanbel"
PERFORMER "Jacques Schwarz - Bart"
ISRC FRY@20581490
INDEX 00 46:06:30
INDEX 01 46:08:07
TRACK 11 AUDIO
TITLE "Descent"
PERFORMER "Jacques Schwarz - Bart"
ISRC FRY@20581500
INDEX 00 51:25:48
INDEX 01 51:27:05
TRACK 12 AUDIO
TITLE "P� La"
PERFORMER "Jacques Schwarz - Bart"
ISRC FRY@20581510
INDEX 00 56:56:18
INDEX 01 56:58:14
TRACK 13 AUDIO
TITLE "L�woz"
PERFORMER "Jacques Schwarz - Bart"
ISRC FRY@20581520
INDEX 00 62:22:63
INDEX 01 62:23:23
16:15
296
Нет комментариев. Ваш будет первым!