Поиск

(avant-garde jazz/ethno-fusion) Looping Jaw Harp Orchestra - Elephant Road, 2009, FLAC (image+.cue), lossless

Треклист:
Looping Jaw Harp Orchestra - Elephant Road
Жанр: avant-garde jazz/ethno-fusion
Год выпуска диска: 2009
Производитель диска: LOOPING, Austria
Аудио кодек: FLAC
Тип рипа: image+.cue
Битрейт аудио: lossless
Продолжительность: 55:82
Трэклист:
1. Soft Metal Tongue 6:04
2. Jam And Eggs 4:14
3. Alien Dish Wash 3:19
4. Elephant Road 7:08
5. Rabach 4:6. Weites Land 4:31
7. Bird Protection Area 2:04
8. Piano Pan 3:35
9. Blue Sunshine 3:12
10. En Passant 2:09
11. Odd Pans 3:39
Собственный рип
Файл перезалит с добавлением сканов
Отчет ЕАС
 
скрытый текст
49Exact Audio Copy V0.99 prebeta 5 from 4. May 2009
EAC extraction logfile from 20. December 2010, 22:38
LOOPING jaw harp orchestra / Elephant Road
Used drive : Optiarc DVD RW AD-7243S Adapter: 0 ID: 1
Read mode : Secure
Utilize accurate stream : Yes
Defeat audio cache : Yes
Make use of C2 pointers : No
Read offset correction : 48
Overread into Lead-In and Lead-Out : No
Fill up missing offset samples with silence : Yes
Delete leading and trailing silent blocks : No
Null samples used in CRC calculations : Yes
Used interface : Native Win32 interface for Win NT & 2000
Used output format : User Defined Encoder
Selected bitrate : 768 kBit/s
Quality : High
Add ID3 tag : No
Command line compressor : C:\Program Files\Exact Audio Copy\FLAC\FLAC.EXE
Additional command line options : -6 -V -T "ARTIST=%a" -T "TITLE=%t" -T "ALBUM=%g" -T "DATE=%y" -T "TRACKNUMBER=%n" -T "GENRE=%m" -T "COMMENT=%e" %s -o %d
TOC of the extracted CD
Track | Start | Length | Start sector | End sector
---------------------------------------------------------
1 | 0:00.00 | 6:04.31 | 0 | 27330
2 | 6:04.31 | 4:15.00 | 27331 | 46455
3 | 10:19.31 | 3:18.54 | 46456 | 61359
4 | 13:38.10 | 7:08.27 | 61360 | 93486
5 | 20:46.37 | 4:49.24 | 93487 | 115185
6 | 25:35.61 | 4:30.44 | 115186 | 135479
7 | 30:06.30 | 2:42.19 | 135480 | 147648
8 | 32:48.49 | 3:36.34 | 147649 | 163882
9 | 36:25.08 | 3:12.58 | 163883 | 178340
10 | 39:37.66 | 2:08.58 | 178341 | 187998
11 | 41:46.49 | 3:40.28 | 187999 | 204526
12 | 45:27.02 | 6:20.32 | 204527 | 233058
13 | 51:47.34 | 4:02.57 | 233059 | 251265
Range status and errors
Selected range
Filename C:\Documents and Settings\S\Мои документы\Torrent раздача\2LOOPING jaw harp orchestra - Elephant Road.wav
Peak level 99.9 %
Range quality 99.9 %
Test CRC 8A148046
Copy CRC 8A148046
Copy OK
No errors occurred
AccurateRip summary
Track 1 not present in database
Track 2 not present in database
Track 3 not present in database
Track 4 not present in database
Track 5 not present in database
Track 6 not present in database
Track 7 not present in database
Track 8 not present in database
Track 9 not present in database
Track 10 not present in database
Track 11 not present in database
Track 12 not present in database
Track 13 not present in database
None of the tracks are present in the AccurateRip database
End of status report
CUE
 
скрытый текст
REM GENRE Avantgarde
REM DATE 2009
REM DISCID BC0D160D
REM COMMENT "ExactAudioCopy v0.99pb5"
PERFORMER "LOOPING jaw harp orchestra"
TITLE "Elephant Road"
FILE "2LOOPING jaw harp orchestra - Elephant Road.flac" WAVE
TRACK 01 AUDIO
TITLE "Soft Metal Tongue"
PERFORMER "LOOPING jaw harp orchestra"
INDEX 01 00:00:00
TRACK 02 AUDIO
TITLE "Jam and Eggs"
PERFORMER "LOOPING jaw harp orchestra"
INDEX 00 06:03:56
INDEX 01 06:04:31
TRACK 03 AUDIO
TITLE "Alien Dish Wash"
PERFORMER "LOOPING jaw harp orchestra"
INDEX 00 10:18:56
INDEX 01 10:19:31
TRACK 04 AUDIO
TITLE "Elephant Road"
PERFORMER "LOOPING jaw harp orchestra"
INDEX 01 13:38:10
TRACK 05 AUDIO
TITLE "Rabach 10"
PERFORMER "LOOPING jaw harp orchestra"
INDEX 01 20:46:37
TRACK 06 AUDIO
TITLE "Weites Land"
PERFORMER "LOOPING jaw harp orchestra"
INDEX 00 25:35:11
INDEX 01 25:35:61
TRACK 07 AUDIO
TITLE "Bird Protection Area"
PERFORMER "LOOPING jaw harp orchestra"
INDEX 01 30:06:30
TRACK 08 AUDIO
TITLE "Piano Pan"
PERFORMER "LOOPING jaw harp orchestra"
INDEX 00 32:46:49
INDEX 01 32:48:49
TRACK 09 AUDIO
TITLE "Blue Sunshine"
PERFORMER "LOOPING jaw harp orchestra"
INDEX 00 36:24:08
INDEX 01 36:25:08
TRACK 10 AUDIO
TITLE "En passant"
PERFORMER "LOOPING jaw harp orchestra"
INDEX 00 39:36:66
INDEX 01 39:37:66
TRACK 11 AUDIO
TITLE "Odd Pans"
PERFORMER "LOOPING jaw harp orchestra"
INDEX 01 41:46:49
TRACK 12 AUDIO
TITLE "Distorted Dreams"
PERFORMER "LOOPING jaw harp orchestra"
INDEX 00 45:26:02
INDEX 01 45:27:02
TRACK 13 AUDIO
TITLE "Trinidad Is Far From Ottakring"
PERFORMER "LOOPING jaw harp orchestra"
INDEX 01 51:47:34
http://www.myspace.com/ingloop
Другие раздачи
http://rutracker.org/forum/search.php?uid=17163016
16:15
370
Нет комментариев. Ваш будет первым!