Поиск

(Latin Jazz, Funk Jazz) Candido - Beautiful (1970) - 2003, FLAC (image+.cue), lossless

(Latin Jazz, Funk Jazz) Candido - Beautiful (1970) - 2003, FLAC (image+.cue), lossless
Треклист:
Candido - Beautiful (1970)
Жанр: Latin Jazz, Funk Jazz
Год выпуска диска: 2003
Производитель диска: UK (Capitol Records)
Аудио кодек: FLAC
Тип рипа: image+.cue
Битрейт аудио: lossless
Продолжительность: 37:45
Источник рипа: Рип свой, диск с Озона
Трэклист:
01 I'm On My Way (3:08)
02 Tic Tac Toe (4:00)
03 Hey, Western Union Man (3:25)
04 Serenade To A Savage (4:31)
05 New World In The Morning (3:22)
06 Beautiful (2:50)
07 I Shouldn't Believe (3:21)
08 Money Man (5:04)
09 Ghana Spice (Part One) (3:05)
10 Ghana Spice (Part Two) (4:19)
Personnel:
Pat Russo, Bernie Glow - trumpets
Alan Raph - trombone, bass trombone
Joe Grimm - soprano sax, baritone sax, flute
Frank Anderson - piano, organ
David Spinozza - guitar
Gerry Jemmot (#1-3,5), Richard Davis (#4,6-10) - electric bass
Herbie Lovelle - drums
Candido Camero - conga, bongos
Joe Cain - arranger
Recorded at A&R Studios, NY City on October 20 (#1-3,5) and 27 (4,6-10), 1970.
 
AMG Review
Featuring his usual touring band, conga master Candido released the funky Beautiful in 1970. His first release for Blue Note -- following his Solid State debut, Man of a Thousand Fingers -- is a dance-oriented project that features lots of go-go-style blues jams propelled along by Candido's high-energy percussion, Richard Davis' electric bass, and Frank Anderson's juicy organ backgrounds. While jazz improvisation isn't really the point of the music, saxophonist Alan Ralph does get in some nice post-bop and modal-style choruses and the two-part "Ghana Spice" gives Candido a nice chance to stretch out. Re-released in 2003 as part of Blue Note's Rare Groove Series, Beautiful isn't the most essential of Candido's recordings, but should hold a fascination for funk-jazz enthusiasts.
 
EAC Log
Exact Audio Copy V0.99 prebeta 4 from 23. January 2008
EAC extraction logfile from 29. May 2010, 12:55
Candido / Beautiful
Used drive : TSSTcorpDVD+-RW TS-L632D Adapter: 1 ID: 0
Read mode : Secure
Utilize accurate stream : Yes
Defeat audio cache : Yes
Make use of C2 pointers : No
Read offset correction : 6
Overread into Lead-In and Lead-Out : No
Fill up missing offset samples with silence : Yes
Delete leading and trailing silent blocks : No
Null samples used in CRC calculations : Yes
Used interface : Native Win32 interface for Win NT & 2000
Used output format : User Defined Encoder
Selected bitrate : 768 kBit/s
Quality : High
Add ID3 tag : No
Command line compressor : C:\Program Files\Exact Audio Copy\FLAC\FLAC.EXE
Additional command line options : -8 -V %s
TOC of the extracted CD
Track | Start | Length | Start sector | End sector
---------------------------------------------------------
1 | 0:00.00 | 3:11.25 | 0 | 14349
2 | 3:11.25 | 4:03.07 | 14350 | 32581
3 | 7:14.32 | 3:29.68 | 32582 | 48324
4 | 10:44.25 | 4:36.35 | 48325 | 69059
5 | 15:20.60 | 3:28.12 | 69060 | 84671
6 | 18:48.72 | 2:54.15 | 84672 | 97736
7 | 21:43.12 | 3:26.20 | 97737 | 113206
8 | 25:09.32 | 5:07.23 | 113207 | 136254
9 | 30:16.55 | 3:06.42 | 136255 | 150246
10 | 33:23.22 | 4:22.15 | 150247 | 169911
Range status and errors
Selected range
Filename C:\Music\Candido - Beautiful\Candido - Beautiful.wav
Peak level 98.8 %
Range quality 100.0 %
Copy CRC 896F8A33
Copy OK
No errors occurred
AccurateRip summary
Track 1 not present in database
Track 2 not present in database
Track 3 not present in database
Track 4 not present in database
Track 5 not present in database
Track 6 not present in database
Track 7 not present in database
Track 8 not present in database
Track 9 not present in database
Track 10 not present in database
None of the tracks are present in the AccurateRip database
End of status report
16:14
318
Нет комментариев. Ваш будет первым!