Вы используете незарегистрированную версию компонента "Вкладки"!

Поиск

(Contemporary Jazz) John Zorn - The Goddess: Music for the Ancient of Days {Tzadik, TZ 7383} - 2010, FLAC (tracks+.cue), lossless

(Contemporary Jazz) John Zorn - The Goddess: Music for the Ancient of Days {Tzadik, TZ 7383} - 2010, FLAC (tracks+.cue), lossless
Треклист:
John Zorn - The Goddess: Music for the Ancient of Days
Жанр: Jazz
Производитель диска: USA
Год издания диска: 2010
Лейбл: Tzadik
Номер по каталогу: TZ 7383
Страна: USA, New York City
Аудио кодек: FLAC
Тип рипа: tracks+.cue
Битрейт аудио: lossless
Продолжительность: 47:40
Сканы: да (png, 300 DPI)
Треклист:
01 - Enchantress
02 - Ishtar
03 - Haptameron
04 - White Magick
05 - Drawing Down the Moon
06 - Beyond the Infinite
07 - Ode to Delphi
Доп. информация:
Состав:
Rob Burger - piano
Kenny Wollesen - vibes
Carol Emanuel - harp
Marc Ribot - guitar
Trevor Dunn - bass
Ben Perowsky - drums
Composed, arranged and conducted by John Zorn.
 
EAC Log
Exact Audio Copy V1.0 beta 1 from 15. November 2010
EAC extraction logfile from 16. February 2011, 23:02
John Zorn / The Goddess: Music for the Ancient of Days
Used drive : Optiarc DVD RW AD-7203A Adapter: 4 ID: 0
Read mode : Secure
Utilize accurate stream : Yes
Defeat audio cache : Yes
Make use of C2 pointers : No
Read offset correction : 48
Overread into Lead-In and Lead-Out : No
Fill up missing offset samples with silence : Yes
Delete leading and trailing silent blocks : No
Null samples used in CRC calculations : Yes
Used interface : Native Win32 interface for Win NT & 2000
Gap handling : Appended to previous track
Used output format : User Defined Encoder
Selected bitrate : 768 kBit/s
Quality : High
Add ID3 tag : No
Command line compressor : C:\Program Files\Exact Audio Copy\Flac\flac.exe
Additional command line options : -8 -V -T "ARTIST=%a" -T "TITLE=%t" -T "ALBUM=%g" -T "DATE=%y" -T "TRACKNUMBER=%n" -T "TOTALTRACKS=%x" -T "GENRE=%m" -T "ALBUMARTIST=%v" -T "ALBUM ARTIST=%v" -T "COMMENT=EAC FLAC -8" %s
TOC of the extracted CD
Track | Start | Length | Start sector | End sector
---------------------------------------------------------
1 | 0:00.00 | 7:44.02 | 0 | 34801
2 | 7:44.02 | 5:36.24 | 34802 | 60025
3 | 13:20.26 | 5:18.02 | 60026 | 83877
4 | 18:38.28 | 6:37.08 | 83878 | 113660
5 | 25:15.36 | 5:49.33 | 113661 | 139868
6 | 31:04.69 | 11:51.33 | 139869 | 193226
7 | 42:56.27 | 4:43.66 | 193227 | 214517
Track 1
Filename C:\Fet's Lossless Rips\01 - Enchantress.wav
Pre-gap length 0:00:02.00
Peak level 96.6 %
Extraction speed 2.6 X
Track quality 100.0 %
Test CRC 173B7B0B
Copy CRC 173B7B0B
Accurately ripped (confidence 4) [5384B4B1]
Copy OK
Track 2
Filename C:\Fet's Lossless Rips\02 - Ishtar.wav
Peak level 96.6 %
Extraction speed 2.9 X
Track quality 100.0 %
Test CRC 18DAB2F6
Copy CRC 18DAB2F6
Accurately ripped (confidence 4) [677FBDAC]
Copy OK
Track 3
Filename C:\Fet's Lossless Rips\03 - Heptameron.wav
Peak level 96.6 %
Extraction speed 3.2 X
Track quality 100.0 %
Test CRC 182313F1
Copy CRC 182313F1
Accurately ripped (confidence 4) [DBCCF00B]
Copy OK
Track 4
Filename C:\Fet's Lossless Rips\04 - White Magick.wav
Peak level 96.6 %
Extraction speed 3.6 X
Track quality 100.0 %
Test CRC 9C1BD805
Copy CRC 9C1BD805
Accurately ripped (confidence 4) [0DDD4758]
Copy OK
Track 5
Filename C:\Fet's Lossless Rips\05 - Drawing Down the Moon.wav
Peak level 96.6 %
Extraction speed 3.8 X
Track quality 100.0 %
Test CRC 3C210D7B
Copy CRC 3C210D7B
Accurately ripped (confidence 4) [83A50230]
Copy OK
Track 6
Filename C:\Fet's Lossless Rips\06 - Beyond the Infinite.wav
Peak level 96.6 %
Extraction speed 4.4 X
Track quality 100.0 %
Test CRC DAA05FB1
Copy CRC DAA05FB1
Accurately ripped (confidence 4) [7A4CA606]
Copy OK
Track 7
Filename C:\Fet's Lossless Rips\07 - Ode to Delphi.wav
Peak level 96.6 %
Extraction speed 4.4 X
Track quality 100.0 %
Test CRC 803FD0AA
Copy CRC 803FD0AA
Accurately ripped (confidence 4) [5F79C73B]
Copy OK
All tracks accurately ripped
No errors occurred
End of status report
==== Log checksum 00BE88E8E20BCA97BF3958305B8F6B9CBA61B75F1EDD61733FFB5B970A925C0C ====
 
Audiochecker
AUDIOCHECKER v2.0 beta (build 457) - by Dester - opdester@freemail.hu
~~~~~~~~~~~~~~~~~~~~~~~~~~~~~~~~~~
-=== DO NOT EDIT THIS FILE! ===-
Path: ...\John Zorn - 2010 - The Goddess Music for the Ancient of Days [Tzadik, TZ 7383]
1 -=- 01 - Enchantress.flac -=- CDDA (100%)
2 -=- 02 - Ishtar.flac -=- CDDA (100%)
3 -=- 03 - Heptameron.flac -=- CDDA (100%)
4 -=- 04 - White Magick.flac -=- CDDA (100%)
5 -=- 05 - Drawing Down the Moon.flac -=- CDDA (100%)
6 -=- 06 - Beyond the Infinite.flac -=- CDDA (100%)
7 -=- 07 - Ode to Delphi.flac -=- CDDA (100%)
Summary 100.00% CDDA
3224468
 
.cue
REM GENRE Jazz
REM DATE 2010
REM DISCID 590B2C07
REM COMMENT "ExactAudioCopy v1.0b1"
PERFORMER "John Zorn"
TITLE "The Goddess: Music for the Ancient of Days"
FILE "01 - Enchantress.wav" WAVE
TRACK 01 AUDIO
TITLE "Enchantress"
PERFORMER "John Zorn"
INDEX 01 00:00:00
FILE "02 - Ishtar.wav" WAVE
TRACK 02 AUDIO
TITLE "Ishtar"
PERFORMER "John Zorn"
INDEX 01 00:00:00
FILE "03 - Heptameron.wav" WAVE
TRACK 03 AUDIO
TITLE "Heptameron"
PERFORMER "John Zorn"
INDEX 01 00:00:00
FILE "04 - White Magick.wav" WAVE
TRACK 04 AUDIO
TITLE "White Magick"
PERFORMER "John Zorn"
INDEX 01 00:00:00
FILE "05 - Drawing Down the Moon.wav" WAVE
TRACK 05 AUDIO
TITLE "Drawing Down the Moon"
PERFORMER "John Zorn"
INDEX 01 00:00:00
FILE "06 - Beyond the Infinite.wav" WAVE
TRACK 06 AUDIO
TITLE "Beyond the Infinite"
PERFORMER "John Zorn"
INDEX 01 00:00:00
FILE "07 - Ode to Delphi.wav" WAVE
TRACK 07 AUDIO
TITLE "Ode to Delphi"
PERFORMER "John Zorn"
INDEX 01 00:00:00
Источник:
Собственный рип с фирменного диска.
Any questions -> support@pro-jazz.com. По всем вопросам пишите -> support@pro-jazz.com
02:14
194
Нет комментариев. Ваш будет первым!