Вы используете незарегистрированную версию компонента "Вкладки"!

Поиск

(Free Jazz, Avant-Garde Jazz) Albert Ayler - Music Is The Healing Force Of The Universe - 2003, FLAC (tracks+.cue), lossless

Треклист:
Albert Ayler - Music Is The Healing Force Of The Universe
Жанр: Free Jazz, Avant-Garde Jazz
Год выпуска диска: 2003
Производитель диска: USA / E.U.
Label: Verve 065 383-2 / Impulse AS-9191
Аудио кодек: FLAC
Тип рипа: tracks+.cue + Artwork
Битрейт аудио: lossless
Продолжительность: 42:29
Происхождение рипа: собственный рип с оригинального диска.
Треклист:
01. Music Is the Healing Force of the Universe - Parks (8:41)
02. Masonic Inborn, Pt. 1 - Parks (12:11)
03. A Man Is Like a Tree - Parks (4:35)
04. Oh! Love of Life - Parks (3:50)
05. Island Harvest - Parks (5:04)
06. Drudgery - Folwell, Parks, Vestine (8:08)
Доп. информация:
Albert Ayler - tenor saxophone, bagpipes, and vocals
Mary Maria Parks - vocals
Henry Vestine - guitar
Bobby Few - piano
Bill Folwell - bass and Fender bass [left channel]
Stafford James - bass [right channel]
Muhammad Ali - drums
Recorded August 1969 at Plaza Sound Studios, New York City: tracks 1 and 3 on August 26, tracks 2 and 4-6 on August 27.
On Mansonic Inborn, Albert Ayler plays two bagpipe parts employing overdubbing.
 
EAC log
Exact Audio Copy V0.99 prebeta 5 from 4. May 2009
EAC extraction logfile from 14. August 2010, 15:00
Albert Ayler / Music Is The Healing Force Of The Universe
Used drive : HL-DT-STDVD-ROM GDR8162B Adapter: 1 ID: 1
Read mode : Secure
Utilize accurate stream : Yes
Defeat audio cache : Yes
Make use of C2 pointers : No
Read offset correction : 102
Overread into Lead-In and Lead-Out : Yes
Fill up missing offset samples with silence : Yes
Delete leading and trailing silent blocks : No
Null samples used in CRC calculations : Yes
Used interface : Installed external ASPI interface
Gap handling : Appended to previous track
Used output format : User Defined Encoder
Selected bitrate : 768 kBit/s
Quality : High
Add ID3 tag : No
Command line compressor : C:\Program Files\FLAC\flac.exe
Additional command line options : -V -8 -T "ARTIST=%a" -T "TITLE=%t" -T "ALBUM=%g" -T "TRACKNUMBER=%n" -T "GENRE=%m" %s
TOC of the extracted CD
Track | Start | Length | Start sector | End sector
---------------------------------------------------------
1 | 0:00.00 | 8:41.20 | 0 | 39094
2 | 8:41.20 | 12:11.39 | 39095 | 93958
3 | 20:52.59 | 4:35.37 | 93959 | 114620
4 | 25:28.21 | 3:50.28 | 114621 | 131898
5 | 29:18.49 | 5:04.41 | 131899 | 154739
6 | 34:23.15 | 8:08.63 | 154740 | 191402
Track 1
Filename C:\ru up\Ayler - Healing Force\01 - Music Is The Healing Force Of The Universe.wav
Pre-gap length 0:00:02.00
Peak level 89.6 %
Track quality 100.0 %
Test CRC 4C40202F
Copy CRC 4C40202F
Accurately ripped (confidence 6) [D242A426]
Copy OK
Track 2
Filename C:\ru up\Ayler - Healing Force\02 - Masonic Inborn, Part 1.wav
Pre-gap length 0:00:04.49
Peak level 90.0 %
Track quality 99.9 %
Test CRC CE965B0A
Copy CRC CE965B0A
Accurately ripped (confidence 5) [E01FB26D]
Copy OK
Track 3
Filename C:\ru up\Ayler - Healing Force\03 - A Man Is Like A Tree.wav
Pre-gap length 0:00:03.45
Peak level 85.8 %
Track quality 100.0 %
Test CRC 5DCE5DB8
Copy CRC 5DCE5DB8
Accurately ripped (confidence 5) [13D3304A]
Copy OK
Track 4
Filename C:\ru up\Ayler - Healing Force\04 - Oh! Love Of Life.wav
Pre-gap length 0:00:04.03
Peak level 92.6 %
Track quality 100.0 %
Test CRC 9224D1A2
Copy CRC 9224D1A2
Accurately ripped (confidence 5) [8CA86959]
Copy OK
Track 5
Filename C:\ru up\Ayler - Healing Force\05 - Island Harvest.wav
Pre-gap length 0:00:02.62
Peak level 86.0 %
Track quality 100.0 %
Test CRC 43EBD1F5
Copy CRC 43EBD1F5
Accurately ripped (confidence 5) [DBB95F61]
Copy OK
Track 6
Filename C:\ru up\Ayler - Healing Force\06 - Drudgery.wav
Pre-gap length 0:00:03.71
Peak level 92.0 %
Track quality 100.0 %
Test CRC 682BF5D4
Copy CRC 682BF5D4
Accurately ripped (confidence 5) [A303AE84]
Copy OK
All tracks accurately ripped
No errors occurred
End of status report
 
cue
REM GENRE Jazz
REM DATE 1969
REM DISCID 3C09F806
REM COMMENT "ExactAudioCopy v0.99pb5"
CATALOG 0044006538327
PERFORMER "Albert Ayler"
TITLE "Music Is The Healing Force Of The Universe"
FILE "01 - Music Is The Healing Force Of The Universe.wav" WAVE
TRACK 01 AUDIO
TITLE "Music Is The Healing Force Of The Universe"
PERFORMER "Albert Ayler"
ISRC USMC16953546
INDEX 01 00:00:00
TRACK 02 AUDIO
TITLE "Masonic Inborn, Part 1"
PERFORMER "Albert Ayler"
ISRC USGR10201482
INDEX 00 08:36:46
FILE "02 - Masonic Inborn, Part 1.wav" WAVE
INDEX 01 00:00:00
TRACK 03 AUDIO
TITLE "A Man Is Like A Tree"
PERFORMER "Albert Ayler"
ISRC USGR10201483
INDEX 00 12:07:69
FILE "03 - A Man Is Like A Tree.wav" WAVE
INDEX 01 00:00:00
TRACK 04 AUDIO
TITLE "Oh! Love Of Life"
PERFORMER "Albert Ayler"
ISRC USGR10201484
INDEX 00 04:31:34
FILE "04 - Oh! Love Of Life.wav" WAVE
INDEX 01 00:00:00
TRACK 05 AUDIO
TITLE "Island Harvest"
PERFORMER "Albert Ayler"
ISRC USGR10201485
INDEX 00 03:47:41
FILE "05 - Island Harvest.wav" WAVE
INDEX 01 00:00:00
TRACK 06 AUDIO
TITLE "Drudgery"
PERFORMER "Albert Ayler"
ISRC USGR10201486
INDEX 00 05:00:45
FILE "06 - Drudgery.wav" WAVE
INDEX 01 00:00:00
 
Review by Al Campbell
Music Is the Healing Force of the Universe is a powerful and often ignored recording from the Albert Ayler catalog.
It is a prophetic statement dealing with guilt, confusion, sorrow, and hopes of redemption. A powerful rhythm section of Bobby Few on piano, Stafford James and
James Folwell on bass, (Folwell on electric fender bass), and Muhammad Ali on drums manage to take a backseat to the prominent vocals of Ayler's business associate
and girlfriend Mary Parks, listed on the record as Mary Maria. Her emotional vocals are featured on "Music Is the Healing Force of the Universe," "Man Is Like a Tree,"
and "Island Harvest." Throughout these tracks Maria sounds as if she is pleading and reasoning not just universally, but directly with Ayler, trying to convince him
of the positive aspects of life and her evangelistic shouts of "be healed" on the title track can prove uncomfortable. "Masonic Inborn" is an instrumental track finding
Ayler not only overdubbing cacophonous bagpipe solos but also playing ocarina. "Oh Love Is Life" is Ayler's sole vocal performance on the album, his words and vocal delivery are truly frightening.
This is a dreamlike plea to the sources haunting his soul to succumb to universal love. Following the intensity of the previous five tracks, the album closes with the hazy gutbucket blues
of "Drudgery" reminiscent of the New Grass sessions, adding guitarist Henry Vestine of the blues rock band Canned Heat.
.........
While not easy listening, they complete an important portrait of a man facing a life and death inner struggle beyond the boundaries of jazz.
 
Offering
Another version also exists on the tracker : http://rutracker.org/forum/viewtopic.php?t=1338231 in format MP3, 256 kbps by terrakotovyihui (with beautiful avatar).
Any questions - support@pro-jazz.com.
Есть вопросы - support@pro-jazz.com
02:15
294
Нет комментариев. Ваш будет первым!