Вы используете незарегистрированную версию компонента "Вкладки"!

Поиск

(Free Improvisation) Michel Doneda - Giuseppe Ielasi - Ingar Zach: Flore de cataclysmo - 2007, FLAC (tracks+.cue), lossless

Треклист:
Michel Doneda - Giuseppe Ielasi - Ingar Zach: Flore de cataclysmo
Жанр: Free Improvisation
Год выпуска диска: 2007
Производитель диска: USA
Label: Sedimental Records sed 048
Аудио кодек: FLAC
Тип рипа: tracks+.cue + Artwork
Битрейт аудио: lossless
Продолжительность: 45:51
Происхождение рипа: собственный рип с оригинального диска.
Треклист:
01. Floating on the mass of blossoms
02. One wing of matter
03. Run fingers over turquoise
Доп. информация:
Michel Doneda - soprano and sopranino saxophones
Giuseppe Ielasi - guitar, electronics
Ingar Zach - drums, percussion
Recorded by Francois Dietz at Studio CCAM, Vandoeuvre Les Nancy, January 25th 2004.
Mixed by Giuseppe Ielasi in 2006.
 
EAC log
Exact Audio Copy V0.99 prebeta 5 from 4. May 2009
EAC extraction logfile from 12. August 2010, 0:46
Michel Doneda / Flore de cataclysmo
Used drive : HL-DT-STDVD-ROM GDR8162B Adapter: 1 ID: 1
Read mode : Secure
Utilize accurate stream : Yes
Defeat audio cache : Yes
Make use of C2 pointers : No
Read offset correction : 102
Overread into Lead-In and Lead-Out : Yes
Fill up missing offset samples with silence : Yes
Delete leading and trailing silent blocks : No
Null samples used in CRC calculations : Yes
Used interface : Installed external ASPI interface
Gap handling : Appended to previous track
Used output format : User Defined Encoder
Selected bitrate : 768 kBit/s
Quality : High
Add ID3 tag : No
Command line compressor : C:\Program Files\FLAC\flac.exe
Additional command line options : -V -8 -T "ARTIST=%a" -T "TITLE=%t" -T "ALBUM=%g" -T "TRACKNUMBER=%n" -T "GENRE=%m" %s
TOC of the extracted CD
Track | Start | Length | Start sector | End sector
---------------------------------------------------------
1 | 0:00.00 | 17:02.02 | 0 | 76651
2 | 17:02.02 | 16:45.23 | 76652 | 152049
3 | 33:47.25 | 11:58.14 | 152050 | 205913
Track 1
Filename C:\ru up\Doneda - Flore\01 - floating of the mass of blossoms.wav
Pre-gap length 0:00:02.00
Peak level 99.9 %
Track quality 100.0 %
Test CRC 803D3B27
Copy CRC 803D3B27
Track not present in AccurateRip database
Copy OK
Track 2
Filename C:\ru up\Doneda - Flore\02 - one wing of matter.wav
Peak level 99.9 %
Track quality 100.0 %
Test CRC 9B570337
Copy CRC 9B570337
Track not present in AccurateRip database
Copy OK
Track 3
Filename C:\ru up\Doneda - Flore\03 - run fingers over turquoise.wav
Peak level 99.9 %
Track quality 100.0 %
Test CRC F795430B
Copy CRC F795430B
Track not present in AccurateRip database
Copy OK
None of the tracks are present in the AccurateRip database
No errors occurred
End of status report
 
cue
REM GENRE Jazz
REM DATE 2004
REM DISCID 160AB903
REM COMMENT "ExactAudioCopy v0.99pb5"
PERFORMER "Michel Doneda"
TITLE "Flore de cataclysmo"
FILE "01 - floating of the mass of blossoms.wav" WAVE
TRACK 01 AUDIO
TITLE "floating of the mass of blossoms"
PERFORMER "Michel Doneda"
INDEX 01 00:00:00
FILE "02 - one wing of matter.wav" WAVE
TRACK 02 AUDIO
TITLE "one wing of matter"
PERFORMER "Michel Doneda"
INDEX 01 00:00:00
FILE "03 - run fingers over turquoise.wav" WAVE
TRACK 03 AUDIO
TITLE "run fingers over turquoise"
PERFORMER "Michel Doneda"
INDEX 01 00:00:00

500 copies
Any questions -> support@pro-jazz.com. По всем вопросам пишите -> support@pro-jazz.com
02:13
157
Нет комментариев. Ваш будет первым!