Вы используете незарегистрированную версию компонента "Вкладки"!

Поиск

(Contemporary Jazz, Guitar Jazz, Post-Bop) Bill Frisell - In Line - 1983, FLAC (image+.cue), lossless

(Contemporary Jazz, Guitar Jazz, Post-Bop) Bill Frisell - In Line - 1983, FLAC (image+.cue), lossless
Треклист:
Bill Frisell - In Line
Жанр: Contemporary Jazz, Guitar Jazz, Post-Bop
Год выпуска диска: 1983
Производитель диска: Россия
Аудио кодек: FLAC
Тип рипа: image+.cue
Битрейт аудио: lossless
Продолжительность: 43:04
Трэклист:
1. Start (Frisell) 5:51
2. Throughout (Frisell) 6:48
3. Two Arms (Frisell) 3:55
4. Shorts (Frisell) 3:04
5. Smile On You (Frisell) 4:03
6. The Beach (Frisell) 6:00
7. In Line (Frisell) 4:32
8. Three (Frisell) 4:12
9. Godson Song (Frisell) 3:57
Доп. информация:
Музыканты:
Bill Frisell - Electric & Acoustic Guitars
Arild Andersen - Bass (tr. 1, 4, 6, 8, 9)
 
EAC Report
Exact Audio Copy V0.99 prebeta 4 from 23. January 2008
Отчёт EAC об извлечении, выполненном 5. марта 2010, 23:21
Bill Frisell / In Line
Дисковод: ASUS DRW-1814BLT Adapter: 2 ID: 0
Режим чтения : Достоверность
Использование точного потока : Да
Отключение кэша аудио : Да
Использование указателей C2 : Нет
Коррекция смещения при чтении : 6
Способность читать области Lead-in и Lead-out : Нет
Заполнение пропущенных сэмплов тишиной : Да
Удаление блоков с тишиной в начале и конце : Нет
При вычислениях CRC использовались нулевые сэмплы : Да
Интерфейс : Встроенный Win32-интерфейс для Win NT/2000
Выходной формат : Пользовательский кодировщик
Выбранный битрейт : 768 kBit/s
Качество : Высокий
Добавление ID3-тэга : Нет
Утилита сжатия : D:\Program Files\Exact Audio Copy\Flac\Flac.exe
Дополнительные параметры : -8 --delete-input-file -o "D:\CDImage.flac" -V %s
TOC извлечённого CD
Трек | Старт | Длительность | Начальный сектор | Конечный сектор
---------------------------------------------------------------------
1 | 0:00.33 | 5:55.52 | 33 | 26709
2 | 5:56.10 | 6:52.65 | 26710 | 57674
3 | 12:49.00 | 4:00.23 | 57675 | 75697
4 | 16:49.23 | 3:08.42 | 75698 | 89839
5 | 19:57.65 | 4:07.65 | 89840 | 108429
6 | 24:05.55 | 6:06.58 | 108430 | 135937
7 | 30:12.38 | 4:36.72 | 135938 | 156709
8 | 34:49.35 | 4:17.45 | 156710 | 176029
9 | 39:07.05 | 3:57.70 | 176030 | 193874
Характеристики диапазона извлечения и сообщения об ошибках
Выбранный диапазон
Имя файла D:\Bill Frisell - In Line.wav
Пиковый уровень 93.1 %
Качество диапазона 100.0 %
CRC теста B79F5E6C
CRC копии B79F5E6C
Копирование... OK
Ошибок не произошло
AccurateRip: сводка
Трек 1 точность не определена (достоверность 5) [527ED60E], AccurateRip вернул [DEBD77AE]
Трек 2 точность не определена (достоверность 5) [85603664], AccurateRip вернул [4004F9B5]
Трек 3 точность не определена (достоверность 5) [5D1ED9C5], AccurateRip вернул [72B2F7A4]
Трек 4 точность не определена (достоверность 5) [5C6A686E], AccurateRip вернул [B22D9E61]
Трек 5 точность не определена (достоверность 5) [3149BD4E], AccurateRip вернул [EEAB5CFE]
Трек 6 точность не определена (достоверность 5) [E64BEC33], AccurateRip вернул [EC004F09]
Трек 7 точность не определена (достоверность 5) [AADAB91D], AccurateRip вернул [DCC8766B]
Трек 8 точность не определена (достоверность 5) [287D47E6], AccurateRip вернул [0E3B46EE]
Трек 9 точность не определена (достоверность 5) [4F88A074], AccurateRip вернул [2E201134]
Ни один трек не прошёл проверки на точность
В вашей базе может быть иной вариант штамповки диска
Конец отчёта
По всем вопросам пишите личное сообщение пользователю M0p94ok.
19:29
232
Нет комментариев. Ваш будет первым!