Вы используете незарегистрированную версию компонента "Вкладки"!

Поиск

(Avant-Garde / Free Jazz) Mario Pavone Double Tenor Quintet - Ancestors - 2008, FLAC (tracks+.cue), lossless

(Avant-Garde / Free Jazz) Mario Pavone Double Tenor Quintet - Ancestors - 2008, FLAC (tracks+.cue), lossless
Треклист:
Mario Pavone Double Tenor Quintet - Ancestors
Жанр: Avant-Garde / Free Jazz
Год выпуска : 2008
Лейбл: Playscape Recordings
Аудио кодек: FLAC
Тип рипа: tracks+.cue
Битрейт аудио: lossless
Продолжительность: 00:51:18
Рип: fraggedbylaggers - What CD


01. Ancestors (9:29)
02. Strata Blue (5:52)
03. Tomes (6:01)
04. Iskmix (7:10)
05. Arc For Puppy (7:58)
06. Beige Structure (1:19)
07. Pachuca (5:34)
08. Andrew (7:54)

 
EAC
EAC extraction logfile from 20. December 2009, 23:02 for CD
Mario Pavone / Ancestors
Used drive : TSSTcorpCDDVDW SH-S223L Adapter: 1 ID: 0
Read mode : Secure with NO C2, accurate stream, disable cache
Read offset correction : 6
Overread into Lead-In and Lead-Out : No
Used output format : C:\Users\Michael\Desktop\FLAC\FLAC\flac.exe (User Defined Encoder)
320 kBit/s
Additional command line options : -8 -A tukey(0.25) -A gauss(0.1875) -b 4096 -V -T "artist=%a" -T "title=%t" -T "album=%g" -T "date=%y" -T "tracknumber=%n" -T "genre=%m" %s
Other options :
Fill up missing offset samples with silence : Yes
Delete leading and trailing silent blocks : No
Native Win32 interface for Win NT & 2000
Track 1
Filename C:\Users\Michael\Documents\Ancestors\01 - Ancestors.wav
Pre-gap length 0:00:02.00
Peak level 97.7 %
Track quality 100.0 %
Test CRC 1E2009AD
Copy CRC 1E2009AD
Copy OK
Track 2
Filename C:\Users\Michael\Documents\Ancestors\02 - Strata Blue.wav
Pre-gap length 0:00:02.00
Peak level 97.7 %
Track quality 100.0 %
Test CRC 10B2F9C3
Copy CRC 10B2F9C3
Copy OK
Track 3
Filename C:\Users\Michael\Documents\Ancestors\03 - Tomes.wav
Pre-gap length 0:00:02.00
Peak level 97.7 %
Track quality 100.0 %
Test CRC 5B76DAA1
Copy CRC 5B76DAA1
Copy OK
Track 4
Filename C:\Users\Michael\Documents\Ancestors\04 - Iskmix.wav
Pre-gap length 0:00:02.00
Peak level 97.7 %
Track quality 100.0 %
Test CRC 74CD72DE
Copy CRC 74CD72DE
Copy OK
Track 5
Filename C:\Users\Michael\Documents\Ancestors\05 - Arc For Puppy.wav
Pre-gap length 0:00:02.00
Peak level 97.7 %
Track quality 100.0 %
Test CRC 718C340E
Copy CRC 718C340E
Copy OK
Track 6
Filename C:\Users\Michael\Documents\Ancestors\06 - Beige Structure.wav
Pre-gap length 0:00:02.01
Peak level 97.7 %
Track quality 100.0 %
Test CRC 49B18D92
Copy CRC 49B18D92
Copy OK
Track 7
Filename C:\Users\Michael\Documents\Ancestors\07 - Pachuca.wav
Peak level 97.7 %
Track quality 100.0 %
Test CRC 19430156
Copy CRC 19430156
Copy OK
Track 8
Filename C:\Users\Michael\Documents\Ancestors\08 - Andrew.wav
Pre-gap length 0:00:02.00
Peak level 97.7 %
Track quality 100.0 %
Test CRC 69E66E3E
Copy CRC 69E66E3E
Copy OK
No errors occured
End of status report
 
CUE
REM DISCID 630C0608
REM COMMENT "ExactAudioCopy v0.95b4"
PERFORMER "Mario Pavone"
TITLE "Ancestors"
FILE "01 - Ancestors.wav" WAVE
TRACK 01 AUDIO
TITLE "Ancestors"
PERFORMER "Mario Pavone"
INDEX 01 00:00:00
TRACK 02 AUDIO
TITLE "Strata Blue"
PERFORMER "Mario Pavone"
INDEX 00 09:26:56
FILE "02 - Strata Blue.wav" WAVE
INDEX 01 00:00:00
TRACK 03 AUDIO
TITLE "Tomes"
PERFORMER "Mario Pavone"
INDEX 00 05:50:33
FILE "03 - Tomes.wav" WAVE
INDEX 01 00:00:00
TRACK 04 AUDIO
TITLE "Iskmix"
PERFORMER "Mario Pavone"
INDEX 00 05:59:34
FILE "04 - Iskmix.wav" WAVE
INDEX 01 00:00:00
TRACK 05 AUDIO
TITLE "Arc For Puppy"
PERFORMER "Mario Pavone"
INDEX 00 07:08:31
FILE "05 - Arc For Puppy.wav" WAVE
INDEX 01 00:00:00
TRACK 06 AUDIO
TITLE "Beige Structure"
PERFORMER "Mario Pavone"
INDEX 00 07:56:19
FILE "06 - Beige Structure.wav" WAVE
INDEX 01 00:00:00
FILE "07 - Pachuca.wav" WAVE
TRACK 07 AUDIO
TITLE "Pachuca"
PERFORMER "Mario Pavone"
INDEX 01 00:00:00
TRACK 08 AUDIO
TITLE "Andrew"
PERFORMER "Mario Pavone"
INDEX 00 05:31:57
FILE "08 - Andrew.wav" WAVE
INDEX 01 00:00:00
 
Audiochecker
Started at: пятница, 05. 03. 2010. - 13:58.10
8 files found
1 -===- C:\Downloads\Music\Джаз\Mario Pavone Double Tenor Quintet - Ancestors - 2008\01 - Ancestors.flac
Extracted successfully
Conclusion: This track looks like CDDA with probability 99%
Tempfile successfully deleted.
2 -===- C:\Downloads\Music\Джаз\Mario Pavone Double Tenor Quintet - Ancestors - 2008\02 - Strata Blue.flac
Extracted successfully
Conclusion: This track looks like CDDA with probability 100%
Tempfile successfully deleted.
3 -===- C:\Downloads\Music\Джаз\Mario Pavone Double Tenor Quintet - Ancestors - 2008\03 - Tomes.flac
Extracted successfully
Conclusion: This track looks like CDDA with probability 100%
Tempfile successfully deleted.
4 -===- C:\Downloads\Music\Джаз\Mario Pavone Double Tenor Quintet - Ancestors - 2008\04 - Iskmix.flac
Extracted successfully
Conclusion: This track looks like CDDA with probability 100%
Tempfile successfully deleted.
5 -===- C:\Downloads\Music\Джаз\Mario Pavone Double Tenor Quintet - Ancestors - 2008\05 - Arc For Puppy.flac
Extracted successfully
Conclusion: This track looks like CDDA with probability 100%
Tempfile successfully deleted.
6 -===- C:\Downloads\Music\Джаз\Mario Pavone Double Tenor Quintet - Ancestors - 2008\06 - Beige Structure.flac
Extracted successfully
Conclusion: This track looks like CDDA with probability 100%
Tempfile successfully deleted.
7 -===- C:\Downloads\Music\Джаз\Mario Pavone Double Tenor Quintet - Ancestors - 2008\07 - Pachuca.flac
Extracted successfully
Conclusion: This track looks like CDDA with probability 99%
Tempfile successfully deleted.
8 -===- C:\Downloads\Music\Джаз\Mario Pavone Double Tenor Quintet - Ancestors - 2008\08 - Andrew.flac
Extracted successfully
Conclusion: This track looks like CDDA with probability 100%
Tempfile successfully deleted.
Finished at: пятница, 05. 03. 2010. - 14:08.46 (operation time: 0:10.36)

Mario Pavone - bass
Tony Malaby - Tenor and Soprano Saxophone
Peter Madsen - Piano
Gerald Cleaver - drums
Guest arrangers - Steven Bernstein, Dave Ballou, Michael Musillami
Any questions -> support@pro-jazz.com. По всем вопросам пишите -> support@pro-jazz.com
19:28
139
Нет комментариев. Ваш будет первым!