Вы используете незарегистрированную версию компонента "Вкладки"!

Поиск

(Free Improvisation/Avant-Garde/Free Jazz) Elton Dean, Paul Dunmall, Tony Levin, Paul Rogers, Roswell Rudd, Keith Tippett - Bladik - 1997, APE (image+.cue), lossless

(Free Improvisation/Avant-Garde/Free Jazz) Elton Dean, Paul Dunmall, Tony Levin, Paul Rogers, Roswell Rudd, Keith Tippett - Bladik - 1997, APE (image+.cue), lossless
Треклист:
Elton Dean, Paul Dunmall, Tony Levin, Paul Rogers, Roswell Rudd, Keith Tippett - Bladik
Жанр: Free Improvisation/Avant-Garde/Free Jazz
Год выпуска диска: 1997
Производитель диска: Cuneiform Records, USA, RUNE 92
Аудио кодек: APE
Тип рипа: image+.cue
Битрейт аудио: lossless
Продолжительность: 61:08
Трэклист:
1 Forearmed 10:00
2 Too Suchmuchness 18:39
3 'K Ad Lib 32:29
Доп. информация: Elton Dean (saxes), Paul Dunmall (saxes), Tony Levin (drums), Paul Rogers (bass), Roswell Rudd (tr), Keith Tippett (piano)
Recorded at Protocol Studio, London, on 28 October 1996.
Рип сделан с оригинального диска
 
eaclog
Exact Audio Copy V0.99 prebeta 4 from 23. January 2008
Отчёт EAC об извлечении, выполненном 4. марта 2010, 21:48
Dean-Dunmall-Levin-Rogers-Rudd-Tippett / Bladik
Дисковод: TSSTcorpCDDVDW SH-S203D Adapter: 3 ID: 0
Режим чтения : Достоверность
Использование точного потока : Да
Отключение кэша аудио : Да
Использование указателей C2 : Нет
Коррекция смещения при чтении : 6
Способность читать области Lead-in и Lead-out : Нет
Заполнение пропущенных сэмплов тишиной : Да
Удаление блоков с тишиной в начале и конце : Нет
При вычислениях CRC использовались нулевые сэмплы : Да
Интерфейс : Установленный внешний ASPI-интерфейс
Выходной формат : Внутренние WAV-операции
Формат сэмплов : 44.100 Гц; 16 бит; стерео
TOC извлечённого CD
Трек | Старт | Длительность | Начальный сектор | Конечный сектор
---------------------------------------------------------------------
1 | 0:00.00 | 9:59.72 | 0 | 44996
2 | 9:59.72 | 18:38.65 | 44997 | 128911
3 | 28:38.62 | 32:29.28 | 128912 | 275114
Характеристики диапазона извлечения и сообщения об ошибках
Выбранный диапазон
Имя файла E:\FOS\MISIC\Paul Dunmall\Dean-Dunmall-Levin-Rogers-Rudd-Tippett - Bladik\Dean-Dunmall-Levin-Rogers-Rudd-Tippett - Bladik.wav
Пиковый уровень 99.8 %
Качество диапазона 100.0 %
CRC копии 09F3075F
Копирование... OK
Ошибок не произошло
Конец отчёта
Any questions -> support@pro-jazz.com. По всем вопросам пишите -> support@pro-jazz.com
19:28
151
Нет комментариев. Ваш будет первым!