Вы используете незарегистрированную версию компонента "Вкладки"!

Поиск

(Free Improvisation) Evan Parker (Derek Bailey, Han Bennink) - The Topography Of The Lungs - 2006 (1970), FLAC (tracks+.cue), lossless

Треклист:
Evan Parker - The Topography Of The Lungs
Жанр: Free Improvisation
Год выпуска диска: 2006 (1970)
Производитель диска: PSI (psi 06.05)
Источник: вот.сиди (alsaan)
Аудио кодек: FLAC
Тип рипа: tracks+.cue
Битрейт аудио: lossless
Продолжительность: 52:45
Трэклист:
1. Titan Moon 20:53
2. For Peter B. & Peter K. 4:39
3. Fixed Elsewhere 5:09
4. Dogmeat 12:27
5. Found Elsewhere 1 4:44
6. Found Elsewhere 2 4:52
Derek Bailey Guitar
Han Bennink Percussion
Evan Parker Saxophone [Soprano, Tenor]
Доп. информация:
Recorded in Fulham, London 13th July 1970.
Reissue of what was the first ever Incus label release, originally issued in 1970.
Original release credited to Evan Parker / Derek Bailey / Han Bennink.
Two previously unissued pieces from the same 1970 session (tracks 5 & 6) have also been added to the disc.
 
Обложка первого издания
 
Отчёт EAC
Exact Audio Copy V0.99 prebeta 4 from 23. January 2008
EAC extraction logfile from 24. April 2009, 17:48
Evan Parker, Derek Bailey, & Han Bennink / The Topography of the Lungs
Used drive : TSSTcorpCDDVDW TS-L633L Adapter: 2 ID: 0
Read mode : Secure
Utilize accurate stream : Yes
Defeat audio cache : Yes
Make use of C2 pointers : No
Read offset correction : 6
Overread into Lead-In and Lead-Out : No
Fill up missing offset samples with silence : Yes
Delete leading and trailing silent blocks : No
Null samples used in CRC calculations : Yes
Used interface : Native Win32 interface for Win NT & 2000
Gap handling : Appended to previous track
Used output format : User Defined Encoder
Selected bitrate : 128 kBit/s
Quality : High
Add ID3 tag : No
Command line compressor : C:\Program Files\Exact Audio Copy\Flac\flac.exe
Additional command line options : -V -8 -T "artist=%a" -T "title=%t" -T "album=%g" -T "date=%y" -T "tracknumber=%n" -T "genre=%m" %s
TOC of the extracted CD
Track | Start | Length | Start sector | End sector
---------------------------------------------------------
1 | 0:00.00 | 20:53.00 | 0 | 93974
2 | 20:53.00 | 4:39.00 | 93975 | 114899
3 | 25:32.00 | 5:09.28 | 114900 | 138102
4 | 30:41.28 | 12:27.47 | 138103 | 194174
5 | 43:09.00 | 4:44.00 | 194175 | 215474
6 | 47:53.00 | 4:52.02 | 215475 | 237376
Track 1
Filename C:\EACrips\Evan Parker, Derek Bailey, & Han Bennink - 1970 - The Topography of the Lungs\01 - Titan Moon .wav
Pre-gap length 0:00:02.00
Peak level 98.8 %
Track quality 100.0 %
Test CRC 9099CB8B
Copy CRC 9099CB8B
Accurately ripped (confidence 4) [9005DA6C]
Copy OK
Track 2
Filename C:\EACrips\Evan Parker, Derek Bailey, & Han Bennink - 1970 - The Topography of the Lungs\02 - For Peter B & Peter K .wav
Pre-gap length 0:00:08.00
Peak level 98.8 %
Track quality 100.0 %
Test CRC 550DB553
Copy CRC 550DB553
Accurately ripped (confidence 4) [2164D064]
Copy OK
Track 3
Filename C:\EACrips\Evan Parker, Derek Bailey, & Han Bennink - 1970 - The Topography of the Lungs\03 - Fixed Elswhere .wav
Pre-gap length 0:00:04.00
Peak level 98.8 %
Track quality 100.0 %
Test CRC A3CA35F9
Copy CRC A3CA35F9
Accurately ripped (confidence 4) [7D46CB08]
Copy OK
Track 4
Filename C:\EACrips\Evan Parker, Derek Bailey, & Han Bennink - 1970 - The Topography of the Lungs\04 - Dogmeat .wav
Pre-gap length 0:00:04.00
Peak level 98.8 %
Track quality 100.0 %
Test CRC 06556A99
Copy CRC 06556A99
Accurately ripped (confidence 4) [332AA1E1]
Copy OK
Track 5
Filename C:\EACrips\Evan Parker, Derek Bailey, & Han Bennink - 1970 - The Topography of the Lungs\05 - Found Elswhere 1 .wav
Pre-gap length 0:00:12.00
Peak level 98.8 %
Track quality 100.0 %
Test CRC 39373861
Copy CRC 39373861
Accurately ripped (confidence 4) [40458766]
Copy OK
Track 6
Filename C:\EACrips\Evan Parker, Derek Bailey, & Han Bennink - 1970 - The Topography of the Lungs\06 - Found Elswhere 2 .wav
Pre-gap length 0:00:04.00
Peak level 98.8 %
Track quality 100.0 %
Test CRC F858E9F4
Copy CRC F858E9F4
Accurately ripped (confidence 4) [88D7E3B7]
Copy OK
All tracks accurately ripped
No errors occurred
End of status report
 
Отчёт Audiocheckera
1 -===- H:\Песеньки\lossless\evan parker derek bailey han bennink\the topography of the lungs 1970\01 - Titan Moon .flac
Extracted successfully
Conclusion: This track looks like CDDA with probability 100%
2 -===- H:\Песеньки\lossless\evan parker derek bailey han bennink\the topography of the lungs 1970\02 - For Peter B & Peter K .flac
Extracted successfully
Conclusion: This track looks like CDDA with probability 99%
3 -===- H:\Песеньки\lossless\evan parker derek bailey han bennink\the topography of the lungs 1970\03 - Fixed Elswhere .flac
Extracted successfully
Conclusion: This track looks like CDDA with probability 99%
4 -===- H:\Песеньки\lossless\evan parker derek bailey han bennink\the topography of the lungs 1970\04 - Dogmeat .flac
Extracted successfully
Conclusion: This track looks like CDDA with probability 100%
5 -===- H:\Песеньки\lossless\evan parker derek bailey han bennink\the topography of the lungs 1970\05 - Found Elswhere 1 .flac
Extracted successfully
Conclusion: This track looks like CDDA with probability 100%
6 -===- H:\Песеньки\lossless\evan parker derek bailey han bennink\the topography of the lungs 1970\06 - Found Elswhere 2 .flac
Extracted successfully
Conclusion: This track looks like CDDA with probability 100%
 
cue
REM GENRE Avantgarde
REM DATE 1970
REM DISCID 530C5D06
REM COMMENT "ExactAudioCopy v0.99pb4"
PERFORMER "Evan Parker, Derek Bailey, & Han Bennink"
TITLE "The Topography of the Lungs"
FILE "Evan Parker, Derek Bailey, & Han Bennink - 1970 - The Topography of the Lungs\01 - Titan Moon .wav" WAVE
TRACK 01 AUDIO
TITLE "Titan Moon"
PERFORMER "Evan Parker, Derek Bailey, & Han Bennink"
INDEX 01 00:00:00
INDEX 02 10:07:49
TRACK 02 AUDIO
TITLE "For Peter B & Peter K"
PERFORMER "Evan Parker, Derek Bailey, & Han Bennink"
INDEX 00 20:45:00
FILE "Evan Parker, Derek Bailey, & Han Bennink - 1970 - The Topography of the Lungs\02 - For Peter B & Peter K .wav" WAVE
INDEX 01 00:00:00
TRACK 03 AUDIO
TITLE "Fixed Elswhere"
PERFORMER "Evan Parker, Derek Bailey, & Han Bennink"
INDEX 00 04:35:00
FILE "Evan Parker, Derek Bailey, & Han Bennink - 1970 - The Topography of the Lungs\03 - Fixed Elswhere .wav" WAVE
INDEX 01 00:00:00
TRACK 04 AUDIO
TITLE "Dogmeat"
PERFORMER "Evan Parker, Derek Bailey, & Han Bennink"
INDEX 00 05:05:28
FILE "Evan Parker, Derek Bailey, & Han Bennink - 1970 - The Topography of the Lungs\04 - Dogmeat .wav" WAVE
INDEX 01 00:00:00
INDEX 02 05:55:65
INDEX 03 08:49:33
TRACK 05 AUDIO
TITLE "Found Elswhere 1"
PERFORMER "Evan Parker, Derek Bailey, & Han Bennink"
INDEX 00 12:15:47
FILE "Evan Parker, Derek Bailey, & Han Bennink - 1970 - The Topography of the Lungs\05 - Found Elswhere 1 .wav" WAVE
INDEX 01 00:00:00
TRACK 06 AUDIO
TITLE "Found Elswhere 2"
PERFORMER "Evan Parker, Derek Bailey, & Han Bennink"
INDEX 00 04:40:00
FILE "Evan Parker, Derek Bailey, & Han Bennink - 1970 - The Topography of the Lungs\06 - Found Elswhere 2 .wav" WAVE
INDEX 01 00:00:00
INDEX 02 00:29:35
Any questions -> support@pro-jazz.com. По всем вопросам пишите -> support@pro-jazz.com
19:30
157
Нет комментариев. Ваш будет первым!