Вы используете незарегистрированную версию компонента "Вкладки"!

Поиск

(Contemporary Jazz) Gato Libre - Shiro - 2009, FLAC (image+.cue), lossless

Треклист:
Gato Libre - Shiro

Жанр: Contemporary Jazz
Год выпуска диска: 2009
Производитель диска: Japan
Аудио кодек: FLAC
Тип рипа: image+.cue
Битрейт аудио: lossless
Продолжительность: 57:07
Трэклист:
1. Dune and Star
2. Waterside
3. Scorpion
4. Falling Star
5. Going Back Home
6. Mountain, River, Sky
7. Memory of Journey
8. Shiro
Natsuki Tamura: trumpet
Satoko Fujii: accordion
Kazuhiko Tsumura: guitar
Norikatsu Koreyasu: bass
Доп. информация: Полиграфия приложена
Отчет EAC
 
скрытый текст
Exact Audio Copy V0.99 prebeta 4 from 23. January 2008
EAC extraction logfile from 11. April 2010, 2:35
Gato Libre / Shiro
Used drive : Optiarc DVD RW AD-7243S Adapter: 4 ID: 0
Read mode : Secure
Utilize accurate stream : Yes
Defeat audio cache : Yes
Make use of C2 pointers : No
Read offset correction : 48
Overread into Lead-In and Lead-Out : No
Fill up missing offset samples with silence : Yes
Delete leading and trailing silent blocks : No
Null samples used in CRC calculations : Yes
Used interface : Native Win32 interface for Win NT & 2000
Used output format : Internal WAV Routines
Sample format : 44.100 Hz; 16 Bit; Stereo
TOC of the extracted CD
Track | Start | Length | Start sector | End sector
---------------------------------------------------------
1 | 0:00.00 | 8:11.50 | 0 | 36874
2 | 8:11.50 | 7:13.16 | 36875 | 69365
3 | 15:24.66 | 6:10.03 | 69366 | 97118
4 | 21:34.69 | 7:25.21 | 97119 | 130514
5 | 29:00.15 | 6:02.09 | 130515 | 157673
6 | 35:02.24 | 8:32.68 | 157674 | 196141
7 | 43:35.17 | 6:00.55 | 196142 | 223196
8 | 49:35.72 | 7:32.17 | 223197 | 257113
Range status and errors
Selected range
Filename D:\Audio\Natsuki Tamura\2009 Shiro\Gato Libre - Shiro.wav
Peak level 96.6 %
Range quality 100.0 %
Copy CRC DA8D654D
Copy OK
No errors occurred
AccurateRip summary
Track 1 not present in database
Track 2 not present in database
Track 3 not present in database
Track 4 not present in database
Track 5 not present in database
Track 6 not present in database
Track 7 not present in database
Track 8 not present in database
None of the tracks are present in the AccurateRip database
End of status report
Any questions -> support@pro-jazz.com. По всем вопросам пишите -> support@pro-jazz.com
21:30
211
Нет комментариев. Ваш будет первым!