Вы используете незарегистрированную версию компонента "Вкладки"!

Поиск

(Avant-Garde / Free Improvisation) Tetterapadequ - And the Missing 'R' - 2008, FLAC (image+.cue), lossless

(Avant-Garde / Free Improvisation) Tetterapadequ - And the Missing 'R' - 2008, FLAC (image+.cue), lossless
Треклист:
Tetterapadequ - And the Missing 'R'

Жанр: Avant-Garde / Free Improvisation
Год выпуска диска: 2008
Производитель диска: Clean Feed CF120; Portugal
Аудио кодек: FLAC
Тип рипа: image+.cue
Битрейт аудио: lossless
Продолжительность: 58:06
Daniele Martini: tenor saxophone
Giovanni di Domenico: piano
Gonçalo Almeida: bass
João Lobo: drums
1. Brain Shower
2. Futprinz
3. Dopey
4. Screw the Driver
5. It Might As Well Be Ciputraf
6. Britney
7. Truccu Billi Billu
8. Monga
9. Chorna
10. Crocodile Dandy
11. É Lava
12. Sousa Lareira Lallá
13. La Virtú dei Forti
Recorded November 2007 by Giovanni Di Domenico at AK11.

 
Clean Feed
What does Tetterapadequ mean? Is it an obscure Italian or Portuguese term that reflects this ensemble's mix of two Italian and two Portuguese musicians? No it is not. It's an anagram of "De Patter Quartet, " which was named after the De Pater jazz club in Haia, The Netherlands. The club - one of the favorite venues for Gonçalo Almeida, Giovanni di Domenico, João Lobo, and Daniele Martini when they were attending the local conservatory - was where the project Tetterapadequ was born and began to develop. But something is missing from the anagram: it shoud have one more "r," hence the CD's title. R or no R, what you'll find in the music extends far beyond what is taught in European jazz courses. At De Pater the quartet explored the possibilities of a shared musical language developed through collective improvisation. It is clearly jazz, which is the root of the musical language used here, but there's much more to it than typical jazz-like rhythmic patterns and harmonic constructions. The four young musicians call their new musical lingo "confusionism" because their structured improvisations and spontaneous compositions surprise the listener, and often the musicians themselves, with unexpected and even bizarre outcomes. ~ Clean Feed
 
Free Jazz Review
This band's curious name is a defective anagram of De Pater Quartet, referring to Muzikantencafé De Pater in The Hague, The Netherlands, a place which this band apparently likes a lot, and for which an "r" is missing, hence the title. There is nothing wrong with the music, though, quite on the contrary. The band consists of Belgian-Italian Daniele Martini on tenor sax, Belgian-Italian pianist Giovanni di Domenico, Portuguese bassist Gonçalo Almeida who resides in Rotterdam, and Portuguese drummer João Lobo. Whatever their origin, I must again congratulate Pedro Costas of Clean Feed for his unbelievable ear for good music, and for giving young musicians the chance to have their music released. The music of Tetterapadequ consists of 13 mostly short tracks of improvised music, mostly subdued, introverted and restrained, with the exception of the third track "Dopey", which is a short drum solo. The four musicians create small creative aural environments, with scarce sounds, lots of empty space. Di Domenico's piano usually sets the tone and the scene. Although some of the sounds come from extended techniques on the various instruments, the music is very accessible and intimate, between traditional jazz (there is even a short reference to Glenn Miller's Moonlight Serenade) and modern classical music, with the other musicians taking the overall sound to a higher stage, creating depth and perspectives that are new and fresh. They are not afraid to push things to the limit, as on the last track, when the first four minutes are nothing but silence, then the bass starts playing softly, with the piano strings being plucked gently, then the drum joins sparingly, and only after eight minutes can the sax be heard, hesitatingly, sensitively, over a one note piano rhythm, yet gaining in power, gaining momentum, hypnotically, majestically, ending in a scream/cough/laugh. Nice music, very creative and subtle. ~ Free Jazz Blog
 
EAC Report
Exact Audio Copy V0.99 prebeta 4 from 23. January 2008
EAC extraction logfile from 17. April 2010, 12:32
Tetterapadequ / And the Missing 'R'
Used drive : TSSTcorpCD/DVDW SH-S182M Adapter: 1 ID: 0
Read mode : Secure
Utilize accurate stream : Yes
Defeat audio cache : Yes
Make use of C2 pointers : No
Read offset correction : 6
Overread into Lead-In and Lead-Out : No
Fill up missing offset samples with silence : Yes
Delete leading and trailing silent blocks : No
Null samples used in CRC calculations : Yes
Used interface : Installed external ASPI interface
Used output format : User Defined Encoder
Selected bitrate : 1024 kBit/s
Quality : High
Add ID3 tag : No
Command line compressor : C:\Program Files\Exact Audio Copy\Flac\flac.exe
Additional command line options : -8 -V -T "ARTIST=%a" -T "TITLE=%t" -T "ALBUM=%g" -T "DATE=%y" -T "TRACKNUMBER=%n" -T "GENRE=%m" -T "COMMENT=EAC FLAC -8" %s
TOC of the extracted CD
Track | Start | Length | Start sector | End sector
---------------------------------------------------------
1 | 0:00.00 | 2:25.21 | 0 | 10895
2 | 2:25.21 | 3:37.52 | 10896 | 27222
3 | 6:02.73 | 1:35.41 | 27223 | 34388
4 | 7:38.39 | 5:42.03 | 34389 | 60041
5 | 13:20.42 | 3:45.43 | 60042 | 76959
6 | 17:06.10 | 2:05.29 | 76960 | 86363
7 | 19:11.39 | 5:05.67 | 86364 | 109305
8 | 24:17.31 | 5:47.62 | 109306 | 135392
9 | 30:05.18 | 2:57.57 | 135393 | 148724
10 | 33:03.00 | 1:52.51 | 148725 | 157175
11 | 34:55.51 | 5:34.31 | 157176 | 182256
12 | 40:30.07 | 5:26.23 | 182257 | 206729
13 | 45:56.30 | 12:09.39 | 206730 | 261443
Range status and errors
Selected range
Filename C:\Users\Igor\Music\eac\Tetterapadequ - And the Missing 'R'.wav
Peak level 98.9 %
Range quality 100.0 %
Test CRC 60296B52
Copy CRC 60296B52
Copy OK
No errors occurred
AccurateRip summary
Track 1 not present in database
Track 2 not present in database
Track 3 not present in database
Track 4 not present in database
Track 5 not present in database
Track 6 not present in database
Track 7 not present in database
Track 8 not present in database
Track 9 not present in database
Track 10 not present in database
Track 11 not present in database
Track 12 not present in database
Track 13 not present in database
None of the tracks are present in the AccurateRip database
End of status report

рип собственный
Any questions -> support@pro-jazz.com. По всем вопросам пишите -> support@pro-jazz.com
21:29
152
Нет комментариев. Ваш будет первым!