Поиск

2007 Louis Sclavis - L'Imparfait Des Langues {ECM 1954} [CD]

2007 Louis Sclavis - L'Imparfait Des Langues {ECM 1954} [CD]
Издатель (лейбл):
Номер по каталогу:
ECM 1954
Носитель:
CD
Тип рипа:
tracks+.cue
Аудиокодек:
FLAC (*.flac)
Битрейт аудио:
lossless
Время звучания:
00:56:01
Наличие сканов:
буклет pdf
Страна-производитель диска (релиза):
Germany
Релизёр (источник):
arh.gavriil
Лог создания рипа
EAC extraction logfile from 29. September 2007, 14:33 for CD
Louis Sclavis / L'imparfait Des Langues
Used drive  : PLEXTOR DVDR   PX-716A   Adapter: 1  ID: 0
Read mode   : Secure with NO C2, accurate stream, disable cache
Read offset correction : 30
Overread into Lead-In and Lead-Out : No
Used output format : Internal WAV Routines
                     44.100 Hz; 16 Bit; Stereo
Other options      :
    Fill up missing offset samples with silence : Yes
    Delete leading and trailing silent blocks : No
    Installed external ASPI interface
Track  1
     Filename F:\[MyRip]\01 - Premier Imparfait-A.wav
     Pre-gap length  0:00:02.00
     Peak level 81.1 %
     Track quality 100.0 %
     Test CRC 2F9C71EB
     Copy CRC 2F9C71EB
     Copy OK
Track  2
     Filename F:\[MyRip]\02 - L'idee Du Dialecte.wav
     Peak level 98.8 %
     Track quality 100.0 %
     Test CRC B83A0316
     Copy CRC B83A0316
     Copy OK
Track  3
     Filename F:\[MyRip]\03 - Premier Imparfait-B.wav
     Pre-gap length  0:00:03.23
     Peak level 58.0 %
     Track quality 100.0 %
     Test CRC 1F43B130
     Copy CRC 1F43B130
     Copy OK
Track  4
     Filename F:\[MyRip]\04 - Le Verbe.wav
     Pre-gap length  0:00:01.52
     Peak level 98.6 %
     Track quality 100.0 %
     Test CRC F620B20D
     Copy CRC F620B20D
     Copy OK
Track  5
     Filename F:\[MyRip]\05 - Dialogue With A Dream.wav
     Pre-gap length  0:00:06.44
     Peak level 99.9 %
     Track quality 99.9 %
     Test CRC 48514424
     Copy CRC 48514424
     Copy OK
Track  6
     Filename F:\[MyRip]\06 - Annonce.wav
     Pre-gap length  0:00:03.62
     Peak level 55.2 %
     Track quality 100.0 %
     Test CRC C4122809
     Copy CRC C4122809
     Copy OK
Track  7
     Filename F:\[MyRip]\07 - Archeologie.wav
     Peak level 99.0 %
     Track quality 100.0 %
     Test CRC 262DD085
     Copy CRC 262DD085
     Copy OK
Track  8
     Filename F:\[MyRip]\08 - Deuxieme Imparfait.wav
     Pre-gap length  0:00:06.08
     Peak level 55.7 %
     Track quality 100.0 %
     Test CRC 2CE4F030
     Copy CRC 2CE4F030
     Copy OK
Track  9
     Filename F:\[MyRip]\09 - Convocation.wav
     Pre-gap length  0:00:02.54
     Peak level 28.0 %
     Track quality 100.0 %
     Test CRC 04B2F4D1
     Copy CRC 04B2F4D1
     Copy OK
Track 10
     Filename F:\[MyRip]\10 - Palabre.wav
     Peak level 98.1 %
     Track quality 100.0 %
     Test CRC F1C9DE4A
     Copy CRC F1C9DE4A
     Copy OK
Track 11
     Filename F:\[MyRip]\11 - Le Long Du Temps.wav
     Pre-gap length  0:00:06.01
     Peak level 85.6 %
     Track quality 99.9 %
     Test CRC 3382AFDC
     Copy CRC 3382AFDC
     Copy OK
Track 12
     Filename F:\[MyRip]\12 - L'ecrit Sacrifie.wav
     Pre-gap length  0:00:04.68
     Peak level 98.1 %
     Track quality 100.0 %
     Test CRC 6153E189
     Copy CRC 6153E189
     Copy OK
Track 13
     Filename F:\[MyRip]\13 - Story Of A Phrase.wav
     Pre-gap length  0:00:01.55
     Peak level 99.9 %
     Track quality 100.0 %
     Test CRC B8F6E02D
     Copy CRC B8F6E02D
     Copy OK
Track 14
     Filename F:\[MyRip]\14 - L'imparfait Des Langues.wav
     Pre-gap length  0:00:03.55
     Peak level 80.5 %
     Track quality 100.0 %
     Test CRC 05067102
     Copy CRC 05067102
     Copy OK
No errors occured
End of status report
Содержание индексной карты (.CUE)
REM GENRE Jazz
REM DATE 2007
REM DISCID B40D210E
REM COMMENT "ExactAudioCopy v0.95b3"
PERFORMER "Louis Sclavis"
TITLE "L'imparfait Des Langues"
FILE "01 - Premier Imparfait-A.wav" WAVE
  TRACK 01 AUDIO
    TITLE "Premier Imparfait-A"
    PERFORMER "Louis Sclavis"
    INDEX 01 00:00:00
FILE "02 - L'idee Du Dialecte.wav" WAVE
  TRACK 02 AUDIO
    TITLE "L'idee Du Dialecte"
    PERFORMER "Louis Sclavis"
    INDEX 01 00:00:00
  TRACK 03 AUDIO
    TITLE "Premier Imparfait-B"
    PERFORMER "Louis Sclavis"
    INDEX 00 06:57:46
FILE "03 - Premier Imparfait-B.wav" WAVE
    INDEX 01 00:00:00
  TRACK 04 AUDIO
    TITLE "Le Verbe"
    PERFORMER "Louis Sclavis"
    INDEX 00 01:01:02
FILE "04 - Le Verbe.wav" WAVE
    INDEX 01 00:00:00
  TRACK 05 AUDIO
    TITLE "Dialogue With A Dream"
    PERFORMER "Louis Sclavis"
    INDEX 00 06:42:47
FILE "05 - Dialogue With A Dream.wav" WAVE
    INDEX 01 00:00:00
  TRACK 06 AUDIO
    TITLE "Annonce"
    PERFORMER "Louis Sclavis"
    INDEX 00 03:59:43
FILE "06 - Annonce.wav" WAVE
    INDEX 01 00:00:00
FILE "07 - Archeologie.wav" WAVE
  TRACK 07 AUDIO
    TITLE "Archeologie"
    PERFORMER "Louis Sclavis"
    INDEX 01 00:00:00
  TRACK 08 AUDIO
    TITLE "Deuxieme Imparfait"
    PERFORMER "Louis Sclavis"
    INDEX 00 06:12:72
FILE "08 - Deuxieme Imparfait.wav" WAVE
    INDEX 01 00:00:00
  TRACK 09 AUDIO
    TITLE "Convocation"
    PERFORMER "Louis Sclavis"
    INDEX 00 02:16:46
FILE "09 - Convocation.wav" WAVE
    INDEX 01 00:00:00
FILE "10 - Palabre.wav" WAVE
  TRACK 10 AUDIO
    TITLE "Palabre"
    PERFORMER "Louis Sclavis"
    INDEX 01 00:00:00
  TRACK 11 AUDIO
    TITLE "Le Long Du Temps"
    PERFORMER "Louis Sclavis"
    INDEX 00 04:00:63
FILE "11 - Le Long Du Temps.wav" WAVE
    INDEX 01 00:00:00
  TRACK 12 AUDIO
    TITLE "L'ecrit Sacrifie"
    PERFORMER "Louis Sclavis"
    INDEX 00 05:30:10
FILE "12 - L'ecrit Sacrifie.wav" WAVE
    INDEX 01 00:00:00
  TRACK 13 AUDIO
    TITLE "Story Of A Phrase"
    PERFORMER "Louis Sclavis"
    INDEX 00 02:25:45
FILE "13 - Story Of A Phrase.wav" WAVE
    INDEX 01 00:00:00
  TRACK 14 AUDIO
    TITLE "L'imparfait Des Langues"
    PERFORMER "Louis Sclavis"
    INDEX 00 07:32:05
FILE "14 - L'imparfait Des Langues.wav" WAVE
    INDEX 01 00:00:00
No seeders - write personal message to M0p94ok. Any questions - support@pro-jazz.com.
Нет сидеров - пишите в личку M0p94ok. Есть вопросы - support@pro-jazz.com
21:31
119
Нет комментариев. Ваш будет первым!