Вы используете незарегистрированную версию компонента "Вкладки"!

Поиск

(Modern Creative / Hard Bop / Fusion) Wayne Peet Trio - Fully Engulfed - 1994, FLAC (tracks+.cue), lossless

Треклист:
Wayne Peet Trio - Fully Engulfed
Жанр: Modern Creative / Hard Bop / Fusion
Год выпуска диска: 1994
Производитель диска: US (Nine Winds) [NWCD0165]
Аудио кодек: FLAC
Тип рипа: tracks+.cue
Битрейт аудио: lossless
Продолжительность: 69:01
Трэклист:
G.E. Stinson - guitar
Wayne Peet - organ, organ & synth, bass
Lance Lee - drums, percussion & voice
1. Hearing Test
2. Visions
3. Fully Engulfed
4. Bucket of Shade
5. Fred Attack
6. The Healing Factor
7. I'm Tellin' Ya
8. Bonkin' With Nebbie
9. Inner Funkdom
 
.log
Exact Audio Copy V0.99 prebeta 4 from 23. January 2008
EAC extraction logfile from 12. April 2010, 18:48
Wayne Peet Trio / Fully Engulfed
Used drive : Optiarc DVD RW AD-7200A Adapter: 1 ID: 0
Read mode : Secure
Utilize accurate stream : Yes
Defeat audio cache : Yes
Make use of C2 pointers : No
Read offset correction : 48
Overread into Lead-In and Lead-Out : No
Fill up missing offset samples with silence : Yes
Delete leading and trailing silent blocks : No
Null samples used in CRC calculations : Yes
Used interface : Native Win32 interface for Win NT & 2000
Gap handling : Appended to previous track
Used output format : User Defined Encoder
Selected bitrate : 768 kBit/s
Quality : High
Add ID3 tag : No
Command line compressor : C:\Program Files\Exact Audio Copy\Flac\flac.exe
Additional command line options : -V -8 -T "artist=%a" -T "title=%t" -T "album=%g" -T "date=%y" -T "tracknumber=%n" -T "genre=%m" %s
TOC of the extracted CD
Track | Start | Length | Start sector | End sector
---------------------------------------------------------
1 | 0:00.00 | 16:46.65 | 0 | 75514
2 | 16:46.65 | 7:23.72 | 75515 | 108811
3 | 24:10.62 | 4:19.20 | 108812 | 128256
4 | 28:30.07 | 9:42.65 | 128257 | 171971
5 | 38:12.72 | 3:25.08 | 171972 | 187354
6 | 41:38.05 | 7:56.40 | 187355 | 223094
7 | 49:34.45 | 7:21.32 | 223095 | 256201
8 | 56:56.02 | 4:32.18 | 256202 | 276619
9 | 61:28.20 | 7:33.37 | 276620 | 310631
Track 1
Filename D:\Wayne Peet Trio - Fully Engulfed (1994) [FLAC]\01 - Hearing Test.wav
Pre-gap length 0:00:02.00
Peak level 99.2 %
Track quality 100.0 %
Test CRC 117A1A3B
Copy CRC 117A1A3B
Copy OK
Track 2
Filename D:\Wayne Peet Trio - Fully Engulfed (1994) [FLAC]\02 - Visions.wav
Pre-gap length 0:00:03.70
Peak level 99.2 %
Track quality 99.9 %
Test CRC 300B68BE
Copy CRC 300B68BE
Copy OK
Track 3
Filename D:\Wayne Peet Trio - Fully Engulfed (1994) [FLAC]\03 - Fully Engulfed.wav
Pre-gap length 0:00:05.02
Peak level 99.2 %
Track quality 100.0 %
Test CRC 5B078A1D
Copy CRC 5B078A1D
Copy OK
Track 4
Filename D:\Wayne Peet Trio - Fully Engulfed (1994) [FLAC]\04 - Bucket of Shade.wav
Pre-gap length 0:00:04.49
Peak level 99.2 %
Track quality 100.0 %
Test CRC 97367FB5
Copy CRC 97367FB5
Copy OK
Track 5
Filename D:\Wayne Peet Trio - Fully Engulfed (1994) [FLAC]\05 - Fred Attack.wav
Pre-gap length 0:00:04.06
Peak level 99.2 %
Track quality 100.0 %
Test CRC 323C43CF
Copy CRC 323C43CF
Copy OK
Track 6
Filename D:\Wayne Peet Trio - Fully Engulfed (1994) [FLAC]\06 - The Healing Factor.wav
Pre-gap length 0:00:02.66
Peak level 67.8 %
Track quality 100.0 %
Test CRC 30C109C0
Copy CRC 30C109C0
Copy OK
Track 7
Filename D:\Wayne Peet Trio - Fully Engulfed (1994) [FLAC]\07 - I'm Tellin' Ya.wav
Pre-gap length 0:00:03.70
Peak level 100.0 %
Track quality 100.0 %
Test CRC A47F30CC
Copy CRC A47F30CC
Copy OK
Track 8
Filename D:\Wayne Peet Trio - Fully Engulfed (1994) [FLAC]\08 - Bonkin' With Nebbie.wav
Pre-gap length 0:00:04.00
Peak level 99.0 %
Track quality 100.0 %
Test CRC 4A7AEE51
Copy CRC 4A7AEE51
Copy OK
Track 9
Filename D:\Wayne Peet Trio - Fully Engulfed (1994) [FLAC]\09 - Inner Funkdom.wav
Pre-gap length 0:00:04.90
Peak level 100.0 %
Track quality 100.0 %
Test CRC 9736FFCD
Copy CRC 9736FFCD
Copy OK
No errors occurred
End of status report
 
.cue
REM GENRE Jazz
REM DATE 1994
REM DISCID 74102D09
REM COMMENT "ExactAudioCopy v0.99pb4"
PERFORMER "Wayne Peet Trio"
TITLE "Fully Engulfed"
FILE "01 - Hearing Test.wav" WAVE
TRACK 01 AUDIO
TITLE "Hearing Test"
PERFORMER "Wayne Peet Trio"
INDEX 01 00:00:00
TRACK 02 AUDIO
TITLE "Visions"
PERFORMER "Wayne Peet Trio"
INDEX 00 16:43:12
FILE "02 - Visions.wav" WAVE
INDEX 01 00:00:00
TRACK 03 AUDIO
TITLE "Fully Engulfed"
PERFORMER "Wayne Peet Trio"
INDEX 00 07:18:70
FILE "03 - Fully Engulfed.wav" WAVE
INDEX 01 00:00:00
TRACK 04 AUDIO
TITLE "Bucket of Shade"
PERFORMER "Wayne Peet Trio"
INDEX 00 04:14:58
FILE "04 - Bucket of Shade.wav" WAVE
INDEX 01 00:00:00
TRACK 05 AUDIO
TITLE "Fred Attack"
PERFORMER "Wayne Peet Trio"
INDEX 00 09:38:60
FILE "05 - Fred Attack.wav" WAVE
INDEX 01 00:00:00
TRACK 06 AUDIO
TITLE "The Healing Factor"
PERFORMER "Wayne Peet Trio"
INDEX 00 03:22:33
FILE "06 - The Healing Factor.wav" WAVE
INDEX 01 00:00:00
TRACK 07 AUDIO
TITLE "I'm Tellin' Ya"
PERFORMER "Wayne Peet Trio"
INDEX 00 07:52:62
FILE "07 - I'm Tellin' Ya.wav" WAVE
INDEX 01 00:00:00
TRACK 08 AUDIO
TITLE "Bonkin' With Nebbie"
PERFORMER "Wayne Peet Trio"
INDEX 00 07:17:32
FILE "08 - Bonkin' With Nebbie.wav" WAVE
INDEX 01 00:00:00
TRACK 09 AUDIO
TITLE "Inner Funkdom"
PERFORMER "Wayne Peet Trio"
INDEX 00 04:27:25
FILE "09 - Inner Funkdom.wav" WAVE
INDEX 01 00:00:00
По всем вопросам пишите личное сообщение пользователю M0p94ok.
21:31
182
Нет комментариев. Ваш будет первым!