Вы используете незарегистрированную версию компонента "Вкладки"!

Поиск

(Contemporary Jazz, Free Jazz) [CD] Machine Mass (Dave Liebman, Michel Delville, Tony Bianco) - Inti - 2014, FLAC (tracks+.cue), lossless

(Contemporary Jazz, Free Jazz) [CD] Machine Mass (Dave Liebman, Michel Delville, Tony Bianco) - Inti - 2014, FLAC (tracks+.cue), lossless
Треклист:
Machine Mass / Inti
Жанр: Contemporary Jazz, Free Jazz
Носитель: CD
Страна-производитель диска (релиза): US
Год издания: 2014
Издатель (лейбл): Moonjune Records
Номер по каталогу: MJR060
Аудиокодек: FLAC (*.flac)
Тип рипа: tracks+.cue
Битрейт аудио: lossless
Продолжительность: 60:15
Источник (релизер): cd
Наличие сканов в содержимом раздачи: нет
Треклист:
1 Inti 7:27
2 Centipede 4:41
3 Lloyd 6:24
4 In A Silent Way 6:29
5 A Sight 6:37
6 Utoma 6:09
7 The Secret Place 4:33
8 Elisabeth 12:46
9 Voice 4:53
 
Лог создания рипа
Exact Audio Copy V1.0 beta 3 from 29. August 2011
EAC extraction logfile from 5. December 2014, 12:41
Machine Mass / Inti
Used drive : ASUS DRW-24F1ST a Adapter: 0 ID: 0
Read mode : Secure
Utilize accurate stream : Yes
Defeat audio cache : Yes
Make use of C2 pointers : No
Read offset correction : 6
Overread into Lead-In and Lead-Out : No
Fill up missing offset samples with silence : Yes
Delete leading and trailing silent blocks : No
Null samples used in CRC calculations : Yes
Used interface : Native Win32 interface for Win NT & 2000
Gap handling : Appended to previous track
Used output format : User Defined Encoder
Selected bitrate : 320 kBit/s
Quality : High
Add ID3 tag : No
Command line compressor : D:\Programs\Exact Audio Copy\Flac\flac.exe
Additional command line options : -V -8 -T "Genre=%genre%" -T "Artist=%artist%" -T "Title=%title%" -T "Album=%albumtitle%" -T "Date=%year%" -T "Tracknumber=%tracknr%" -T "Comment=%comment%" %source%
TOC of the extracted CD
Track | Start | Length | Start sector | End sector
---------------------------------------------------------
1 | 0:00.00 | 7:29.09 | 0 | 33683
2 | 7:29.09 | 4:43.00 | 33684 | 54908
3 | 12:12.09 | 6:25.46 | 54909 | 83829
4 | 18:37.55 | 6:30.56 | 83830 | 113135
5 | 25:08.36 | 6:39.28 | 113136 | 143088
6 | 31:47.64 | 6:11.28 | 143089 | 170941
7 | 37:59.17 | 4:35.18 | 170942 | 191584
8 | 42:34.35 | 12:47.56 | 191585 | 249165
9 | 55:22.16 | 4:53.00 | 249166 | 271140
Track 1
Filename D:\EAC\01 Inti.wav
Pre-gap length 0:00:02.00
Peak level 99.8 %
Extraction speed 5.1 X
Track quality 100.0 %
Test CRC C9968209
Copy CRC C9968209
Copy OK
Track 2
Filename D:\EAC\02 Centipede.wav
Pre-gap length 0:00:02.00
Peak level 99.8 %
Extraction speed 5.5 X
Track quality 100.0 %
Test CRC BEA9EBE4
Copy CRC BEA9EBE4
Copy OK
Track 3
Filename D:\EAC\03 Lloyd.wav
Pre-gap length 0:00:02.00
Peak level 99.8 %
Extraction speed 6.2 X
Track quality 100.0 %
Test CRC B0FEE022
Copy CRC B0FEE022
Copy OK
Track 4
Filename D:\EAC\04 In a Silent Way.wav
Pre-gap length 0:00:02.00
Peak level 99.8 %
Extraction speed 6.3 X
Track quality 99.9 %
Test CRC 67D600CC
Copy CRC 67D600CC
Copy OK
Track 5
Filename D:\EAC\05 A Sight.wav
Pre-gap length 0:00:02.00
Peak level 99.8 %
Extraction speed 6.8 X
Track quality 99.9 %
Test CRC B96624B2
Copy CRC B96624B2
Copy OK
Track 6
Filename D:\EAC\06 Utoma.wav
Pre-gap length 0:00:02.00
Peak level 99.8 %
Extraction speed 7.8 X
Track quality 100.0 %
Test CRC 6546A329
Copy CRC 6546A329
Copy OK
Track 7
Filename D:\EAC\07 The Secret Place.wav
Pre-gap length 0:00:02.00
Peak level 99.8 %
Extraction speed 6.9 X
Track quality 99.9 %
Test CRC 373CAF0A
Copy CRC 373CAF0A
Copy OK
Track 8
Filename D:\EAC\08 Elisabeth.wav
Pre-gap length 0:00:02.00
Peak level 99.8 %
Extraction speed 9.3 X
Track quality 100.0 %
Test CRC 6833E79E
Copy CRC 6833E79E
Copy OK
Track 9
Filename D:\EAC\09 Voice.wav
Pre-gap length 0:00:02.00
Peak level 100.0 %
Extraction speed 8.9 X
Track quality 100.0 %
Test CRC 689DC56A
Copy CRC 689DC56A
Copy OK
No errors occurred
End of status report
==== Log checksum 1A886178E363583B2C4BDFD08B06211947B95FC3C528E24B987F4057A0E4D5EA ====
 
Содержание индексной карты (.CUE)
REM GENRE Jazz
REM DATE 2014
REM DISCID 6B0E1F09
REM COMMENT "ExactAudioCopy v1.0b3"
PERFORMER "Machine Mass"
TITLE "Inti"
FILE "01 Inti.wav" WAVE
TRACK 01 AUDIO
TITLE "Inti"
PERFORMER "Machine Mass"
INDEX 01 00:00:00
TRACK 02 AUDIO
TITLE "Centipede"
PERFORMER "Machine Mass"
INDEX 00 07:27:09
FILE "02 Centipede.wav" WAVE
INDEX 01 00:00:00
TRACK 03 AUDIO
TITLE "Lloyd"
PERFORMER "Machine Mass"
INDEX 00 04:41:00
FILE "03 Lloyd.wav" WAVE
INDEX 01 00:00:00
TRACK 04 AUDIO
TITLE "In a Silent Way"
PERFORMER "Machine Mass"
INDEX 00 06:23:46
FILE "04 In a Silent Way.wav" WAVE
INDEX 01 00:00:00
TRACK 05 AUDIO
TITLE "A Sight"
PERFORMER "Machine Mass"
INDEX 00 06:28:56
FILE "05 A Sight.wav" WAVE
INDEX 01 00:00:00
TRACK 06 AUDIO
TITLE "Utoma"
PERFORMER "Machine Mass"
INDEX 00 06:37:28
FILE "06 Utoma.wav" WAVE
INDEX 01 00:00:00
TRACK 07 AUDIO
TITLE "The Secret Place"
PERFORMER "Machine Mass"
INDEX 00 06:09:28
FILE "07 The Secret Place.wav" WAVE
INDEX 01 00:00:00
TRACK 08 AUDIO
TITLE "Elisabeth"
PERFORMER "Machine Mass"
INDEX 00 04:33:18
FILE "08 Elisabeth.wav" WAVE
INDEX 01 00:00:00
TRACK 09 AUDIO
TITLE "Voice"
PERFORMER "Machine Mass"
INDEX 00 12:45:56
FILE "09 Voice.wav" WAVE
INDEX 01 00:00:00
Доп. информация: Recorded at Red Rock Recording Studios, Saylorsburg, PA (USA).
October 10, 2012
 
Об исполнителе (группе)
“Dave Liebman is one of the most creative jazz saxophonists on the planet …the most breathtaking sweep of emotions that might be heard on soprano saxophone for some time to come.”
"Michel Delville’s fantastic guitar leads build (once again) to the far corners of the universe… quite stunning whether soloing or filling out the spaces between”
“Tony Bianco allies grace and power, propelling both sessions with unflinching stamina”
 
Об альбоме (сборнике)
MACHINE MASS feat. Dave LIEBMAN pairs the legendary saxophonist (Miles Davis, Elvin Jones...) with longtime collaborator drummer Tony Bianco (Elton Dean, Paul Dunmall, Evan Parker, douBt) and guitarist Michel Delville (The Wrong Object, douBt). Graced by Liebman’s extraordinary phrasing and improvising skills, “INTI” combines free improvisation with tight rhythmic structures, post-Bitches Brew time signatures with ambient episodes, spreading across different musical and spiritual realities, both playfully and intensely. The band ventures into the fiery electro-jazz territories explored by Bianco and Delville’s recent Machine Mass Trio, which also showcased both musicians’ capacity to listen closely and improvise over unpredictable chord, rhythm and time changes while handling live electronics and computer loops.
 
Состав
Drums, Loops, Percussion – Tony Bianco
Guitar, Guitar Synthesizer [Roland GR09], Electronics – Michel Delville
Soprano Saxophone, Tenor Saxophone, Flute [Wooden] – Dave Liebman
Vocals – Saba Tewelde (tracks: 7)
По всем вопросам пишите личное сообщение пользователю M0p94ok.
06:49
138
Нет комментариев. Ваш будет первым!