Вы используете незарегистрированную версию компонента "Вкладки"!

Поиск

(Free Improvisation) [CD] Matana Roberts, Sam Shalabi, Nicolas Caloia - Feldspar - 2014, FLAC (tracks+.cue), lossless

(Free Improvisation) [CD] Matana Roberts, Sam Shalabi, Nicolas Caloia - Feldspar - 2014, FLAC (tracks+.cue), lossless
Треклист:
Matana Roberts, Sam Shalabi, Nicolas Caloia / Feldspar
Жанр: Free Improvisation
Носитель: CD
Страна-производитель диска (релиза): Canada
Год издания: 2014
Издатель (лейбл): Tour De Bras
Номер по каталогу: TDB9008cd
Аудиокодек: FLAC (*.flac)
Тип рипа: tracks+.cue
Битрейт аудио: lossless
Продолжительность: 47:02
Источник (релизер): whatcd (noense)
Наличие сканов в содержимом раздачи: нет
Треклист:
1. Orpiment 8:01
2. Spinel 5:30
3. Galena 8:25
4. Anatase 5:14
5. Opal 7:22
6. Cinnabar 4:54
7. Feldspar 7:36
 
Лог создания рипа
X Lossless Decoder version 20140504 (147.0)
XLD extraction logfile from 2014-10-02 00:46:44 +0400
Matana Roberts, Sam Shalabi, Nicolas Caloia / Feldspar
Used drive : HL-DT-ST DVDRW GX30N (revision RP09)
Media type : Pressed CD
Ripper mode : XLD Secure Ripper
Disable audio cache : OK for the drive with a cache less than 1375KiB
Make use of C2 pointers : NO
Read offset correction : 6
Max retry count : 100
Gap status : Analyzed, Appended (except HTOA)
TOC of the extracted CD
Track | Start | Length | Start sector | End sector
---------------------------------------------------------
1 | 00:00:00 | 08:00:74 | 0 | 36073
2 | 08:00:74 | 05:29:73 | 36074 | 60821
3 | 13:30:72 | 08:24:55 | 60822 | 98676
4 | 21:55:52 | 05:13:72 | 98677 | 122223
5 | 27:09:49 | 07:22:12 | 122224 | 155385
6 | 34:31:61 | 04:54:08 | 155386 | 177443
7 | 39:25:69 | 07:36:22 | 177444 | 211665
AccurateRip Summary
Disc not found in AccurateRip DB.
All Tracks
Album gain : -1.60 dB
Peak : 0.968323
Statistics
Read error : 0
Jitter error (maybe fixed) : 0
Retry sector count : 0
Damaged sector count : 0
Track 01
Filename : /Users/Shared/Grabbed/Matana Roberts, Sam Shalabi, Nicolas Caloia - 2014 - Feldspar [FLAC]/01 - Orpiment.flac
Pre-gap length : 00:02:00
Track gain : -3.09 dB
Peak : 0.968323
CRC32 hash (test run) : F679F83A
CRC32 hash : F679F83A
CRC32 hash (skip zero) : 172AA917
AccurateRip v1 signature : 5901345D
AccurateRip v2 signature : 3BED45DF
->Track not present in AccurateRip database.
Statistics
Read error : 0
Jitter error (maybe fixed) : 0
Retry sector count : 0
Damaged sector count : 0
Track 02
Filename : /Users/Shared/Grabbed/Matana Roberts, Sam Shalabi, Nicolas Caloia - 2014 - Feldspar [FLAC]/02 - Spinel.flac
Pre-gap length : 00:02:00
Track gain : 0.87 dB
Peak : 0.789215
CRC32 hash (test run) : E6DB900A
CRC32 hash : E6DB900A
CRC32 hash (skip zero) : 28E6295C
AccurateRip v1 signature : 1C6AC180
AccurateRip v2 signature : D6E3AF1C
->Track not present in AccurateRip database.
Statistics
Read error : 0
Jitter error (maybe fixed) : 0
Retry sector count : 0
Damaged sector count : 0
Track 03
Filename : /Users/Shared/Grabbed/Matana Roberts, Sam Shalabi, Nicolas Caloia - 2014 - Feldspar [FLAC]/03 - Galena.flac
Pre-gap length : 00:02:00
Track gain : 0.91 dB
Peak : 0.870605
CRC32 hash (test run) : D69F168E
CRC32 hash : D69F168E
CRC32 hash (skip zero) : E25088D1
AccurateRip v1 signature : 1BBB8F60
AccurateRip v2 signature : F8E04C3C
->Track not present in AccurateRip database.
Statistics
Read error : 0
Jitter error (maybe fixed) : 0
Retry sector count : 0
Damaged sector count : 0
Track 04
Filename : /Users/Shared/Grabbed/Matana Roberts, Sam Shalabi, Nicolas Caloia - 2014 - Feldspar [FLAC]/04 - Anatase.flac
Pre-gap length : 00:02:00
Track gain : 0.24 dB
Peak : 0.968323
CRC32 hash (test run) : 64288EEE
CRC32 hash : 64288EEE
CRC32 hash (skip zero) : 895167C6
AccurateRip v1 signature : 6ED38427
AccurateRip v2 signature : C067A504
->Track not present in AccurateRip database.
Statistics
Read error : 0
Jitter error (maybe fixed) : 0
Retry sector count : 0
Damaged sector count : 0
Track 05
Filename : /Users/Shared/Grabbed/Matana Roberts, Sam Shalabi, Nicolas Caloia - 2014 - Feldspar [FLAC]/05 - Opal.flac
Pre-gap length : 00:02:00
Track gain : 2.61 dB
Peak : 0.968323
CRC32 hash (test run) : C274F7A1
CRC32 hash : C274F7A1
CRC32 hash (skip zero) : 3D3FADC7
AccurateRip v1 signature : 738C4A22
AccurateRip v2 signature : 1FB0F15E
->Track not present in AccurateRip database.
Statistics
Read error : 0
Jitter error (maybe fixed) : 0
Retry sector count : 0
Damaged sector count : 0
Track 06
Filename : /Users/Shared/Grabbed/Matana Roberts, Sam Shalabi, Nicolas Caloia - 2014 - Feldspar [FLAC]/06 - Cinnabar.flac
Pre-gap length : 00:02:00
Track gain : 0.44 dB
Peak : 0.924713
CRC32 hash (test run) : 9D0E4877
CRC32 hash : 9D0E4877
CRC32 hash (skip zero) : 5C0B3CA4
AccurateRip v1 signature : 013865E7
AccurateRip v2 signature : 240DF1D0
->Track not present in AccurateRip database.
Statistics
Read error : 0
Jitter error (maybe fixed) : 0
Retry sector count : 0
Damaged sector count : 0
Track 07
Filename : /Users/Shared/Grabbed/Matana Roberts, Sam Shalabi, Nicolas Caloia - 2014 - Feldspar [FLAC]/07 - Feldspar.flac
Pre-gap length : 00:02:00
Track gain : -4.79 dB
Peak : 0.968323
CRC32 hash (test run) : D0FE7BBB
CRC32 hash : D0FE7BBB
CRC32 hash (skip zero) : 3CC7E2BA
AccurateRip v1 signature : B568FDA2
AccurateRip v2 signature : 81D7AF83
->Track not present in AccurateRip database.
Statistics
Read error : 0
Jitter error (maybe fixed) : 0
Retry sector count : 0
Damaged sector count : 0
No errors occurred
End of status report
-----BEGIN XLD SIGNATURE-----
OSy1INdMI_btxlKdzjpP8keGiSd.kk7Rj3a1NyA1Wve3wnWeuNfem0PM73Hz0UvmEpzj1yut4VQP2c7FyroTY83NAe.f0eL7Oh2nimy
-----END XLD SIGNATURE-----
 
Содержание индексной карты (.CUE)
TITLE "Feldspar"
PERFORMER "Matana Roberts, Sam Shalabi, Nicolas Caloia"
REM GENRE "Free Jazz"
REM DATE "2014"
REM DISCID 500B0607
REM REPLAYGAIN_ALBUM_GAIN -1.60 dB
REM REPLAYGAIN_ALBUM_PEAK 0.968323
FILE "01 - Orpiment.flac" WAVE
TRACK 01 AUDIO
TITLE "Orpiment"
PERFORMER "Matana Roberts, Sam Shalabi, Nicolas Caloia"
ISRC CAL7U1400001
REM REPLAYGAIN_TRACK_GAIN -3.09 dB
REM REPLAYGAIN_TRACK_PEAK 0.968323
INDEX 01 00:00:00
TRACK 02 AUDIO
TITLE "Spinel"
PERFORMER "Matana Roberts, Sam Shalabi, Nicolas Caloia"
ISRC CAL7U1400002
REM REPLAYGAIN_TRACK_GAIN 0.87 dB
REM REPLAYGAIN_TRACK_PEAK 0.789215
INDEX 00 07:58:74
FILE "02 - Spinel.flac" WAVE
INDEX 01 00:00:00
TRACK 03 AUDIO
TITLE "Galena"
PERFORMER "Matana Roberts, Sam Shalabi, Nicolas Caloia"
ISRC CAL7U1400003
REM REPLAYGAIN_TRACK_GAIN 0.91 dB
REM REPLAYGAIN_TRACK_PEAK 0.870605
INDEX 00 05:27:73
FILE "03 - Galena.flac" WAVE
INDEX 01 00:00:00
TRACK 04 AUDIO
TITLE "Anatase"
PERFORMER "Matana Roberts, Sam Shalabi, Nicolas Caloia"
ISRC CAL7U1400004
REM REPLAYGAIN_TRACK_GAIN 0.24 dB
REM REPLAYGAIN_TRACK_PEAK 0.968323
INDEX 00 08:22:55
FILE "04 - Anatase.flac" WAVE
INDEX 01 00:00:00
TRACK 05 AUDIO
TITLE "Opal"
PERFORMER "Matana Roberts, Sam Shalabi, Nicolas Caloia"
ISRC CAL7U1400005
REM REPLAYGAIN_TRACK_GAIN 2.61 dB
REM REPLAYGAIN_TRACK_PEAK 0.968323
INDEX 00 05:11:72
FILE "05 - Opal.flac" WAVE
INDEX 01 00:00:00
TRACK 06 AUDIO
TITLE "Cinnabar"
PERFORMER "Matana Roberts, Sam Shalabi, Nicolas Caloia"
ISRC CAL7U1400006
REM REPLAYGAIN_TRACK_GAIN 0.44 dB
REM REPLAYGAIN_TRACK_PEAK 0.924713
INDEX 00 07:20:12
FILE "06 - Cinnabar.flac" WAVE
INDEX 01 00:00:00
TRACK 07 AUDIO
TITLE "Feldspar"
PERFORMER "Matana Roberts, Sam Shalabi, Nicolas Caloia"
ISRC CAL7U1400007
REM REPLAYGAIN_TRACK_GAIN -4.79 dB
REM REPLAYGAIN_TRACK_PEAK 0.968323
INDEX 00 04:52:08
FILE "07 - Feldspar.flac" WAVE
INDEX 01 00:00:00
 
Об альбоме
"With her Coin Coin project Matana Roberts has become everybody's darling, from papers like the New York Times or the Los Angeles Times to jazz magazines and radio programs, even to media beyond the jazz cosmos like the Rolling Stone, SPIN or pitchfork.com. Everyone is rightfully awestruck by "Gens de Couleur Libres" and "Mississippi Moonchile" (including us).
But apart from her longtime project Matana Roberts has always been involved in smaller groups - like her trio with Josh Abrams (b) and Chad Taylor (dr), her quartet with Taylor Ho Bynum (cornet), Thomson Kneeland (b) and Thomas Fujiwara (dr) or her band with Jeff Parker (g), Josh Abrams (b) and Frank Rosaly (dr) - all of them not as spectacular as Coin Coin but nevertheless absolutely interesting since Roberts concentrates more on improvisation while Coin Coin rather focuses on a compositional element.
For this album Roberts has formed a new trio with Canadian musicians Sam Shalabi (g) and Nicolas Caloia (b), both active members of Montreal's prospering scene. Their Feldspar album is named after a group of minerals, the name feldspar derives from the German words Feld (field) and Spath (a rock that does not contain any ore) - like this formation does not have any drums.
The band mainly delves into harsh avant-garde idioms, sometimes the musicians seem to be alienated from each other, as if they would confirm an old prejudice against free jazz that the musicians only play for themselves. However, Roberts' always keeps a strong element of melody present, in "Spinel" her sax lines are deeply rooted in folk blues melodies (and she does not deny Albert Ayler, Steve Lacy and Fred Anderson as main influences). In general bass and guitar provide edgy textures and colorful dots for Roberts' discreet melodies, as if the three were painting a picture, the guitar providing the ground coat, the sax being responsible for the strokes of the brush and the bass for the dots (as in "Opal").
Highlights of this album are the bookending tracks: On "Orpiment" Shalabi provides a Thurston-Moore-like guitar, Matana's warm and gentle sax creeps into the track very shyly in front of the guitar feedback and Caloia's bowed bass, she seems to be looking for a point of contact with bass and guitar. Only at the end the three instruments seem to entwine with each other, dancing madly, their limbs distorted.
The title track (the last one on this album) begins with bass and sax displaying a melancholic layout, while Shalabi's atonal guitar is playing almost against the others, as if he wanted to disturb the dialogue - but Roberts and Caloia resist and answer back. It is a heavy, escalating dispute, at the end everybody seems to be exhausted from the fight in this long aftermath."
 
Состав
Alto Saxophone – Matana Roberts
Contrabass – Nicolas Caloia
Guitar – Sam Shalabi
По всем вопросам пишите личное сообщение пользователю M0p94ok.
06:48
131
Нет комментариев. Ваш будет первым!