Вы используете незарегистрированную версию компонента "Вкладки"!

Поиск

(Free Jazz) [CD] Ornette Coleman - Love Call (1968) - 2014 {Japan SHM-CD Blue Note 24-192 Remaster}, FLAC (tracks+.cue), lossless

(Free Jazz) [CD] Ornette Coleman - Love Call (1968) - 2014 {Japan SHM-CD Blue Note 24-192 Remaster}, FLAC (tracks+.cue), lossless
Треклист:
Ornette Coleman - Love Call (1968) Жанр: Free Jazz
Носитель: CD
Страна-производитель диска (релиза): Japan
Год издания: 2014
Издатель (лейбл): Universal Japan/Blue Note
Номер по каталогу: TYCJ-81095
Аудиокодек: FLAC (*.flac)
Тип рипа: tracks+.cue
Битрейт аудио: lossless
Продолжительность: 53:33
Rip by ruskaval
Наличие сканов в содержимом раздачи: да
Треклист:
01. Airborne (10:32)
02. Love Call (8:46)
03. Open To The Public (8:06)
04. Check Out Time (8:24)
05. Love Call (alt. take) (bonus track) (5:32)
06. Check Out Time (alt. take) (bonus track) (7:59)
07. Just For You (bonus track) (4:14)
Personnel:
Ornette Coleman - as, tp
Dewey Redman - ts
Jimmy Garrison - b
Elvin Jones - d
Rec.: A&R Studios, NYC, NY, April 29 and May 7, 1968.
 
 
Лог создания рипа
Exact Audio Copy V1.0 beta 3 from 29. August 2011
EAC extraction logfile from 7. November 2014, 0:48
Ornette Coleman / Love Call
Used drive : ATAPI iHAS124 B Adapter: 2 ID: 1
Read mode : Secure
Utilize accurate stream : Yes
Defeat audio cache : Yes
Make use of C2 pointers : No
Read offset correction : 6
Overread into Lead-In and Lead-Out : No
Fill up missing offset samples with silence : Yes
Delete leading and trailing silent blocks : No
Null samples used in CRC calculations : Yes
Used interface : Native Win32 interface for Win NT & 2000
Gap handling : Appended to previous track
Used output format : User Defined Encoder
Selected bitrate : 1024 kBit/s
Quality : High
Add ID3 tag : No
Command line compressor : C:\Program Files (x86)\FLAC Frontend\tools\flac.exe
Additional command line options : -8 -V -T "ARTIST=%artist%" -T "TITLE=%title%" -T "ALBUM=%albumtitle%" -T "DATE=%year%" -T "TRACKNUMBER=%tracknr%" -T "TOTALTRACKS=%numtracks%" -T "GENRE=%genre%" -T "ALBUMARTIST=%albumartist%" -T "ALBUM ARTIST=%albumartist%" -T "COMMENT=EAC Secure Mode, Test & Copy, AccurateRip, FLAC -8" %source%
TOC of the extracted CD
Track | Start | Length | Start sector | End sector
---------------------------------------------------------
1 | 0:00.00 | 10:31.60 | 0 | 47384
2 | 10:31.60 | 8:46.29 | 47385 | 86863
3 | 19:18.14 | 8:05.46 | 86864 | 123284
4 | 27:23.60 | 8:24.00 | 123285 | 161084
5 | 35:47.60 | 5:32.21 | 161085 | 186005
6 | 41:20.06 | 7:58.38 | 186006 | 221893
7 | 49:18.44 | 4:13.72 | 221894 | 240940
Track 1
Filename C:\Ornette Coleman - Love Call (1968) {2014 Japan SHM-CD Blue Note 24-192 Remaster}\01 - Airborne.wav
Pre-gap length 0:00:02.00
Peak level 97.0 %
Extraction speed 3.7 X
Track quality 99.9 %
Test CRC F14BB152
Copy CRC F14BB152
Track not present in AccurateRip database
Copy OK
Track 2
Filename C:\Ornette Coleman - Love Call (1968) {2014 Japan SHM-CD Blue Note 24-192 Remaster}\02 - Love Call.wav
Pre-gap length 0:00:02.23
Peak level 96.9 %
Extraction speed 4.9 X
Track quality 100.0 %
Test CRC 1D1F9F00
Copy CRC 1D1F9F00
Track not present in AccurateRip database
Copy OK
Track 3
Filename C:\Ornette Coleman - Love Call (1968) {2014 Japan SHM-CD Blue Note 24-192 Remaster}\03 - Open To The Public.wav
Pre-gap length 0:00:02.23
Peak level 97.0 %
Extraction speed 5.5 X
Track quality 100.0 %
Test CRC 3EA71CE6
Copy CRC 3EA71CE6
Track not present in AccurateRip database
Copy OK
Track 4
Filename C:\Ornette Coleman - Love Call (1968) {2014 Japan SHM-CD Blue Note 24-192 Remaster}\04 - Check Out Time.wav
Pre-gap length 0:00:02.22
Peak level 97.0 %
Extraction speed 5.4 X
Track quality 99.9 %
Test CRC 958C2E48
Copy CRC 958C2E48
Track not present in AccurateRip database
Copy OK
Track 5
Filename C:\Ornette Coleman - Love Call (1968) {2014 Japan SHM-CD Blue Note 24-192 Remaster}\05 - Love Call (alt. take) (bonus track).wav
Pre-gap length 0:00:02.42
Peak level 97.0 %
Extraction speed 6.3 X
Track quality 100.0 %
Test CRC 1EB6CDC6
Copy CRC 1EB6CDC6
Track not present in AccurateRip database
Copy OK
Track 6
Filename C:\Ornette Coleman - Love Call (1968) {2014 Japan SHM-CD Blue Note 24-192 Remaster}\06 - Check Out Time (alt. take) (bonus track).wav
Pre-gap length 0:00:02.43
Peak level 97.0 %
Extraction speed 6.8 X
Track quality 100.0 %
Test CRC 78F36F6B
Copy CRC 78F36F6B
Track not present in AccurateRip database
Copy OK
Track 7
Filename C:\Ornette Coleman - Love Call (1968) {2014 Japan SHM-CD Blue Note 24-192 Remaster}\07 - Just For You (bonus track).wav
Pre-gap length 0:00:02.43
Peak level 96.9 %
Extraction speed 5.3 X
Track quality 99.9 %
Test CRC 5998A088
Copy CRC 5998A088
Track not present in AccurateRip database
Copy OK
None of the tracks are present in the AccurateRip database
No errors occurred
End of status report
==== Log checksum 1CAE277B050B7AEDA41C457D82D775AD2719027EFF641C404D46C092BE4C4D7C ====
 
Содержание индексной карты (.CUE)
REM GENRE Jazz
REM DATE 1968
REM DISCID 570C8C07
REM COMMENT "ExactAudioCopy v1.0b3"
PERFORMER "Ornette Coleman"
TITLE "Love Call"
FILE "01 - Airborne.wav" WAVE
TRACK 01 AUDIO
TITLE "Airborne"
PERFORMER "Ornette Coleman"
INDEX 01 00:00:00
TRACK 02 AUDIO
TITLE "Love Call"
PERFORMER "Ornette Coleman"
INDEX 00 10:29:37
FILE "02 - Love Call.wav" WAVE
INDEX 01 00:00:00
TRACK 03 AUDIO
TITLE "Open To The Public"
PERFORMER "Ornette Coleman"
INDEX 00 08:44:06
FILE "03 - Open To The Public.wav" WAVE
INDEX 01 00:00:00
TRACK 04 AUDIO
TITLE "Check Out Time"
PERFORMER "Ornette Coleman"
INDEX 00 08:03:24
FILE "04 - Check Out Time.wav" WAVE
INDEX 01 00:00:00
TRACK 05 AUDIO
TITLE "Love Call (alt. take) (bonus track)"
PERFORMER "Ornette Coleman"
INDEX 00 08:21:33
FILE "05 - Love Call (alt. take) (bonus track).wav" WAVE
INDEX 01 00:00:00
TRACK 06 AUDIO
TITLE "Check Out Time (alt. take) (bonus track)"
PERFORMER "Ornette Coleman"
INDEX 00 05:29:53
FILE "06 - Check Out Time (alt. take) (bonus track).wav" WAVE
INDEX 01 00:00:00
TRACK 07 AUDIO
TITLE "Just For You (bonus track)"
PERFORMER "Ornette Coleman"
INDEX 00 07:55:70
FILE "07 - Just For You (bonus track).wav" WAVE
INDEX 01 00:00:00
По всем вопросам пишите личное сообщение пользователю M0p94ok.
06:49
151
Нет комментариев. Ваш будет первым!