Вы используете незарегистрированную версию компонента "Вкладки"!

Поиск

(Contemporary Jazz, Free Jazz) [CD] Enrico Fazio 7tet (Francesco Aroni Vigone, Carlo Actis Dato, Gianpiero Malfatto, Giovanni Falzone, Emanuele Parrini, Fiorenzo Sordini) - Live in Milano - Villa Litta - 2005, FLAC (tracks+.cue), lossless

(Contemporary Jazz, Free Jazz) [CD] Enrico Fazio 7tet (Francesco Aroni Vigone, Carlo Actis Dato, Gianpiero Malfatto, Giovanni Falzone, Emanuele Parrini, Fiorenzo Sordini) - Live in Milano - Villa Litta - 2005, FLAC (tracks+.cue), lossless
Треклист:
Enrico Fazio 7tet / Live in Milano - Villa Litta
Жанр: Contemporary Jazz, Free Jazz
Носитель: CD
Страна-производитель диска (релиза): UK
Год издания: 2005
Издатель (лейбл): Leo Records
Номер по каталогу: CD LR 424
Аудиокодек: FLAC (*.flac)
Тип рипа: tracks+.cue
Битрейт аудио: lossless
Продолжительность: 64:04
Источник (релизер): CD
Наличие сканов в содержимом раздачи: нет
Треклист:
01. Compagni di Merengue 5:39
02. When Enrico Met the Pink Floyd (at Perpignan Station) 9:54
03. Ciao Jack! 3:13
04. Walkabout 9:13
05. Isole 7:49
06. Igor 8:44
07. Euphoria 11:12
08. Banana Split 8:05
 
Лог создания рипа
Exact Audio Copy V1.0 beta 3 from 29. August 2011
EAC extraction logfile from 10. December 2014, 10:52
Enrico Fazio 7tet / Live in Milano - Villa Litta
Used drive : ASUS DRW-24F1ST a Adapter: 0 ID: 0
Read mode : Secure
Utilize accurate stream : Yes
Defeat audio cache : Yes
Make use of C2 pointers : No
Read offset correction : 6
Overread into Lead-In and Lead-Out : No
Fill up missing offset samples with silence : Yes
Delete leading and trailing silent blocks : No
Null samples used in CRC calculations : Yes
Used interface : Native Win32 interface for Win NT & 2000
Gap handling : Appended to previous track
Used output format : User Defined Encoder
Selected bitrate : 320 kBit/s
Quality : High
Add ID3 tag : No
Command line compressor : D:\Programs\Exact Audio Copy\Flac\flac.exe
Additional command line options : -V -8 -T "Genre=%genre%" -T "Artist=%artist%" -T "Title=%title%" -T "Album=%albumtitle%" -T "Date=%year%" -T "Tracknumber=%tracknr%" -T "Comment=%comment%" %source%
TOC of the extracted CD
Track | Start | Length | Start sector | End sector
---------------------------------------------------------
1 | 0:00.00 | 5:40.63 | 0 | 25562
2 | 5:40.63 | 9:56.00 | 25563 | 70262
3 | 15:36.63 | 3:14.15 | 70263 | 84827
4 | 18:51.03 | 9:14.24 | 84828 | 126401
5 | 28:05.27 | 7:50.36 | 126402 | 161687
6 | 35:55.63 | 8:45.15 | 161688 | 201077
7 | 44:41.03 | 11:13.27 | 201078 | 251579
8 | 55:54.30 | 8:09.45 | 251580 | 288299
Track 1
Filename D:\EAC\01 Compagni di Merengue.wav
Pre-gap length 0:00:02.00
Peak level 94.1 %
Extraction speed 4.6 X
Track quality 100.0 %
Test CRC 3C9C7AC8
Copy CRC 3C9C7AC8
Copy OK
Track 2
Filename D:\EAC\02 When Enrico Met the Pink Floyd.wav
Pre-gap length 0:00:14.58
Peak level 93.0 %
Extraction speed 5.7 X
Track quality 100.0 %
Test CRC 0364A917
Copy CRC 0364A917
Copy OK
Track 3
Filename D:\EAC\03 Ciao Jack!.wav
Pre-gap length 0:00:13.58
Peak level 85.5 %
Extraction speed 4.8 X
Track quality 99.9 %
Test CRC FEFBF9D9
Copy CRC FEFBF9D9
Copy OK
Track 4
Filename D:\EAC\04 Walkabout.wav
Pre-gap length 0:00:12.73
Peak level 97.6 %
Extraction speed 6.8 X
Track quality 100.0 %
Test CRC 8B6E9AE3
Copy CRC 8B6E9AE3
Copy OK
Track 5
Filename D:\EAC\05 Isole.wav
Pre-gap length 0:00:13.07
Peak level 99.8 %
Extraction speed 7.4 X
Track quality 100.0 %
Test CRC D2FB3385
Copy CRC D2FB3385
Copy OK
Track 6
Filename D:\EAC\06 Igor.wav
Pre-gap length 0:00:16.19
Peak level 95.9 %
Extraction speed 7.5 X
Track quality 99.9 %
Test CRC 137FBFCB
Copy CRC 137FBFCB
Copy OK
Track 7
Filename D:\EAC\07 Euphoria.wav
Pre-gap length 0:00:14.73
Peak level 99.8 %
Extraction speed 8.8 X
Track quality 100.0 %
Test CRC 1A83E224
Copy CRC 1A83E224
Copy OK
Track 8
Filename D:\EAC\08 Banana Split.wav
Pre-gap length 0:01:01.10
Peak level 99.8 %
Extraction speed 9.1 X
Track quality 100.0 %
Test CRC BB4846F9
Copy CRC BB4846F9
Copy OK
No errors occurred
End of status report
==== Log checksum 6E4B08FDCDDBD08D37208F5FB0F79A7BD309F4B42B6EFA66EBD6AD7BFB2ED461 ====
 
Содержание индексной карты (.CUE)
REM GENRE Jazz
REM DATE 2005
REM DISCID 700F0408
REM COMMENT "ExactAudioCopy v1.0b3"
PERFORMER "Enrico Fazio 7tet"
TITLE "Live in Milano - Villa Litta"
FILE "01 Compagni di Merengue.wav" WAVE
TRACK 01 AUDIO
TITLE "Compagni di Merengue"
PERFORMER "Enrico Fazio 7tet"
INDEX 01 00:00:00
TRACK 02 AUDIO
TITLE "When Enrico Met the Pink Floyd"
PERFORMER "Enrico Fazio 7tet"
INDEX 00 05:26:05
FILE "02 When Enrico Met the Pink Floyd.wav" WAVE
INDEX 01 00:00:00
TRACK 03 AUDIO
TITLE "Ciao Jack!"
PERFORMER "Enrico Fazio 7tet"
INDEX 00 09:42:17
FILE "03 Ciao Jack!.wav" WAVE
INDEX 01 00:00:00
TRACK 04 AUDIO
TITLE "Walkabout"
PERFORMER "Enrico Fazio 7tet"
INDEX 00 03:01:17
FILE "04 Walkabout.wav" WAVE
INDEX 01 00:00:00
TRACK 05 AUDIO
TITLE "Isole"
PERFORMER "Enrico Fazio 7tet"
INDEX 00 09:01:17
FILE "05 Isole.wav" WAVE
INDEX 01 00:00:00
TRACK 06 AUDIO
TITLE "Igor"
PERFORMER "Enrico Fazio 7tet"
INDEX 00 07:34:17
FILE "06 Igor.wav" WAVE
INDEX 01 00:00:00
TRACK 07 AUDIO
TITLE "Euphoria"
PERFORMER "Enrico Fazio 7tet"
INDEX 00 08:30:17
FILE "07 Euphoria.wav" WAVE
INDEX 01 00:00:00
TRACK 08 AUDIO
TITLE "Banana Split"
PERFORMER "Enrico Fazio 7tet"
INDEX 00 10:12:17
FILE "08 Banana Split.wav" WAVE
INDEX 01 00:00:00
Доп. информация: Digitally live recorded on 27 August 2004 at Villa Litta, Milano.
 
Состав
Alto Saxophone – Francesco Aroni Vigone
Double Bass, Composed By, Arranged By, Producer – Enrico Fazio
Drums, Percussion – Fiorenzo Sordini
Tenor Saxophone, Baritone Saxophone, Bass Clarinet – Carlo Actis Dato
Trombone, Flute – Gianpiero Malfatto
Trumpet, Cornet – Giovanni Falzone
Violin – Emanuele Parrini
По всем вопросам пишите личное сообщение пользователю M0p94ok.
07:03
126
Нет комментариев. Ваш будет первым!