Вы используете незарегистрированную версию компонента "Вкладки"!

Поиск

(Contemporary Jazz, Free Jazz, Cam Jazz) [CD] Mauro Ottolini (Daniele D'Agaro, Dan Kinzelman, Giorgio Pacorig, Zeno de Rossi, Fulvio Sigurta, Enrico Terragnoli, Danilo Gallo, Vincenzo Castrini...) - Sousaphonix - 2009, FLAC (tracks+.cue), lossless

(Contemporary Jazz, Free Jazz, Cam Jazz) [CD] Mauro Ottolini (Daniele D'Agaro, Dan Kinzelman, Giorgio Pacorig, Zeno de Rossi, Fulvio Sigurta, Enrico Terragnoli, Danilo Gallo, Vincenzo Castrini...) - Sousaphonix - 2009, FLAC (tracks+.cue), lossless
Треклист:
Mauro Ottolini / Sousaphonix
Жанр: Contemporary Jazz, Free Jazz
Носитель: CD
Страна-производитель диска (релиза): Italy
Год издания: 2009
Издатель (лейбл): Cam Jazz
Номер по каталогу: CAMJ 7821-2
Аудиокодек: FLAC (*.flac)
Тип рипа: tracks+.cue
Битрейт аудио: lossless
Продолжительность: 61:59
Источник (релизер): cd
Наличие сканов в содержимом раздачи: нет
Треклист:
1. Little Slide Funk
2. Matti Pellonpaa
3. Charlie M.
4. Tina
5. Sousaphonized
6. New Orleans
7. Uilli 'The Green'
8. The Scream Of Love
9. Jamaica Tomboy
10. Extra Time
11. Silver Threads Among The Gold
 
Лог создания рипа
Exact Audio Copy V1.0 beta 3 from 29. August 2011
EAC extraction logfile from 9. December 2014, 20:10
Mauro Ottolini / Sousaphonix
Used drive : ASUS DRW-24F1ST a Adapter: 0 ID: 0
Read mode : Secure
Utilize accurate stream : Yes
Defeat audio cache : Yes
Make use of C2 pointers : No
Read offset correction : 6
Overread into Lead-In and Lead-Out : No
Fill up missing offset samples with silence : Yes
Delete leading and trailing silent blocks : No
Null samples used in CRC calculations : Yes
Used interface : Native Win32 interface for Win NT & 2000
Gap handling : Appended to previous track
Used output format : User Defined Encoder
Selected bitrate : 320 kBit/s
Quality : High
Add ID3 tag : No
Command line compressor : D:\Programs\Exact Audio Copy\Flac\flac.exe
Additional command line options : -V -8 -T "Genre=%genre%" -T "Artist=%artist%" -T "Title=%title%" -T "Album=%albumtitle%" -T "Date=%year%" -T "Tracknumber=%tracknr%" -T "Comment=%comment%" %source%
TOC of the extracted CD
Track | Start | Length | Start sector | End sector
---------------------------------------------------------
1 | 0:00.00 | 8:57.13 | 0 | 40287
2 | 8:57.13 | 4:16.67 | 40288 | 59554
3 | 13:14.05 | 6:56.43 | 59555 | 90797
4 | 20:10.48 | 6:23.05 | 90798 | 119527
5 | 26:33.53 | 6:34.33 | 119528 | 149110
6 | 33:08.11 | 5:12.15 | 149111 | 172525
7 | 38:20.26 | 6:18.46 | 172526 | 200921
8 | 44:38.72 | 3:08.70 | 200922 | 215091
9 | 47:47.67 | 6:09.49 | 215092 | 242815
10 | 53:57.41 | 3:58.50 | 242816 | 260715
11 | 57:56.16 | 4:03.29 | 260716 | 278969
Track 1
Filename D:\EAC\01 Little Slide Funk.wav
Pre-gap length 0:00:02.00
Peak level 94.6 %
Extraction speed 4.7 X
Track quality 99.9 %
Test CRC 700D9BB2
Copy CRC 700D9BB2
Copy OK
Track 2
Filename D:\EAC\02 Matti Pellonpaa.wav
Pre-gap length 0:00:02.00
Peak level 87.2 %
Extraction speed 5.4 X
Track quality 100.0 %
Test CRC 494ABC99
Copy CRC 494ABC99
Copy OK
Track 3
Filename D:\EAC\03 Charlie M..wav
Pre-gap length 0:00:02.00
Peak level 94.6 %
Extraction speed 6.2 X
Track quality 100.0 %
Test CRC 56AA9E70
Copy CRC 56AA9E70
Copy OK
Track 4
Filename D:\EAC\04 Tina.wav
Pre-gap length 0:00:02.00
Peak level 88.8 %
Extraction speed 6.7 X
Track quality 100.0 %
Test CRC B75C9D91
Copy CRC B75C9D91
Copy OK
Track 5
Filename D:\EAC\05 Sousaphonized.wav
Pre-gap length 0:00:02.00
Peak level 94.5 %
Extraction speed 7.2 X
Track quality 100.0 %
Test CRC 9F37A4FD
Copy CRC 9F37A4FD
Copy OK
Track 6
Filename D:\EAC\06 New Orleans.wav
Pre-gap length 0:00:02.00
Peak level 94.6 %
Extraction speed 7.5 X
Track quality 100.0 %
Test CRC E587BA44
Copy CRC E587BA44
Copy OK
Track 7
Filename D:\EAC\07 Uilli ''The Green''.wav
Pre-gap length 0:00:02.00
Peak level 94.5 %
Extraction speed 8.0 X
Track quality 100.0 %
Test CRC 5592F626
Copy CRC 5592F626
Copy OK
Track 8
Filename D:\EAC\08 The Scream Of Love.wav
Pre-gap length 0:00:02.00
Peak level 79.2 %
Extraction speed 7.3 X
Track quality 100.0 %
Test CRC C9F1F55C
Copy CRC C9F1F55C
Copy OK
Track 9
Filename D:\EAC\09 Jamaica Tomboy.wav
Pre-gap length 0:00:00.15
Peak level 94.6 %
Extraction speed 8.6 X
Track quality 100.0 %
Test CRC A6AE818D
Copy CRC A6AE818D
Copy OK
Track 10
Filename D:\EAC\10 Extra Time.wav
Pre-gap length 0:00:02.66
Peak level 94.6 %
Extraction speed 8.4 X
Track quality 100.0 %
Test CRC D8CD006B
Copy CRC D8CD006B
Copy OK
Track 11
Filename D:\EAC\11 Silver Threads Among The Gold.wav
Peak level 90.0 %
Extraction speed 7.6 X
Track quality 99.9 %
Test CRC 70557F5C
Copy CRC 70557F5C
Copy OK
No errors occurred
End of status report
==== Log checksum 4E7F543723EE7CBF8179B1253A852BE448C46321101CE6BE83C1492D73889DE5 ====
 
Содержание индексной карты (.CUE)
REM GENRE Jazz
REM DATE 2009
REM DISCID AD0E870B
REM COMMENT "ExactAudioCopy v1.0b3"
PERFORMER "Mauro Ottolini"
TITLE "Sousaphonix"
FILE "01 Little Slide Funk.wav" WAVE
TRACK 01 AUDIO
TITLE "Little Slide Funk "
PERFORMER "Mauro Ottolini"
ISRC US29B0955567
FLAGS DCP
INDEX 01 00:00:00
TRACK 02 AUDIO
TITLE "Matti Pellonpaa"
PERFORMER "Mauro Ottolini"
ISRC US29B0955571
FLAGS DCP
INDEX 00 08:55:13
FILE "02 Matti Pellonpaa.wav" WAVE
INDEX 01 00:00:00
TRACK 03 AUDIO
TITLE "Charlie M. "
PERFORMER "Mauro Ottolini"
ISRC US29B0955580
FLAGS DCP
INDEX 00 04:14:67
FILE "03 Charlie M..wav" WAVE
INDEX 01 00:00:00
TRACK 04 AUDIO
TITLE "Tina"
PERFORMER "Mauro Ottolini"
ISRC US29B0955585
FLAGS DCP
INDEX 00 06:54:43
FILE "04 Tina.wav" WAVE
INDEX 01 00:00:00
TRACK 05 AUDIO
TITLE "Sousaphonized "
PERFORMER "Mauro Ottolini"
ISRC US29B0955578
FLAGS DCP
INDEX 00 06:21:05
FILE "05 Sousaphonized.wav" WAVE
INDEX 01 00:00:00
TRACK 06 AUDIO
TITLE "New Orleans"
PERFORMER "Mauro Ottolini"
ISRC US29B0955590
FLAGS DCP
INDEX 00 06:32:33
FILE "06 New Orleans.wav" WAVE
INDEX 01 00:00:00
TRACK 07 AUDIO
TITLE "Uilli 'The Green' "
PERFORMER "Mauro Ottolini"
ISRC US29B0955569
FLAGS DCP
INDEX 00 05:10:15
FILE "07 Uilli ''The Green''.wav" WAVE
INDEX 01 00:00:00
TRACK 08 AUDIO
TITLE "The Scream Of Love "
PERFORMER "Mauro Ottolini"
ISRC US29B0955564
FLAGS DCP
INDEX 00 06:16:46
FILE "08 The Scream Of Love.wav" WAVE
INDEX 01 00:00:00
TRACK 09 AUDIO
TITLE "Jamaica Tomboy "
PERFORMER "Mauro Ottolini"
ISRC US29B0955588
FLAGS DCP
INDEX 00 03:08:55
FILE "09 Jamaica Tomboy.wav" WAVE
INDEX 01 00:00:00
TRACK 10 AUDIO
TITLE "Extra Time "
PERFORMER "Mauro Ottolini"
ISRC US29B0955576
FLAGS DCP
INDEX 00 06:06:58
FILE "10 Extra Time.wav" WAVE
INDEX 01 00:00:00
FILE "11 Silver Threads Among The Gold.wav" WAVE
TRACK 11 AUDIO
TITLE "Silver Threads Among The Gold "
PERFORMER "Mauro Ottolini"
ISRC US29B0955583
FLAGS DCP
INDEX 01 00:00:00
Доп. информация: Recorded and mixed in Cavalicco (Udine) on 14, 15 January 2009 at Artesuono Recording Studio Recording
 
Об альбоме (сборнике)
Music with a fiery, forceful character; eclectic and energizing, with hues of blues and tinges of reggae...
"Mauro Ottolini is a multi-instrumentalist and his music -- rising from the brass he blows into -- is multi-stylist. The use of a variable trombone and its mutes, the flashing slide trumpet and the full-bodied, but agile saxophone inspires Ottolini to create pieces that express his complex personality, the result of a personal history of sound that includes classical, operatic, popular, jazz and Afro-American music". (Luigi Onori)
 
Состав
Daniele D'Agaro Clarinet, Sax (Tenor)
Dan Kinzelman Clarinet, Clarinet (Bass), Sax (Tenor)
Mauro "Otto" Ottolini Arranger, Composer, Primary Artist, Slide Trumpet, Sousaphone, Trombone
Giorgio Pacorig Fender Rhodes
Zeno de Rossi Drums
Fulvio Sigurta Electronics, Flugelhorn, Trumpet
Enrico Terragnoli Guitar (Electric)
Vincenzo Vasi Theremin
Vincenzo "Titti"Castrini Accordion
Danilo Gallo Doublebass
По всем вопросам пишите личное сообщение пользователю M0p94ok.
07:03
130
Нет комментариев. Ваш будет первым!