Вы используете незарегистрированную версию компонента "Вкладки"!

Поиск

(Avant-Garde Jazz, Free Improvisation, Saxophone) [CD] John Coltrane - [1965] Kulu Se Mama & Transition (Two Original LPs On One CD) - 2001, APE (image+.cue), lossless

(Avant-Garde Jazz, Free Improvisation, Saxophone) [CD] John Coltrane - [1965] Kulu Se Mama & Transition (Two Original LPs On One CD) - 2001, APE (image+.cue), lossless
Треклист:
John Coltrane / [1965] Kulu Sé Mama & Transition (2 original LP's on 1 CD)
Жанр: Avant-Garde Jazz, Free Improvisation, Saxophone
Носитель: CD
Страна-производитель диска (релиза): Russia
Год издания: 2001 (1965)
Издатель (лейбл): 1965 Impulse! / 2001 Азбука Звука
Аудиокодек: APE (*.ape)
Тип рипа: image+.cue
Битрейт аудио: lossless
Продолжительность: 01:11:11
Источник (релизер): Deep.Sky
Наличие сканов в содержимом раздачи: да
Доп. информация:
Kulu Sé Mama
Studio album by John Coltrane, Released: 1965
Recorded: June 10, June 16 and October 14, 1965
Label: Impulse!
Original LP release Kulu Sé Mama (Impulse!)
1. Kulu Sé Mama (Juno Sé Mama)
2. Vigil
3. Welcome
Personnel:
* John Coltrane — tenor saxophone
* Pharoah Sanders — tenor saxophone (track 1 only)
* McCoy Tyner — piano
* Jimmy Garrison — double bass
* Donald Garrett — bass clarinet/double bass (track 1 only)
* Frank Butler —drums (track 1 only)
* Elvin Jones — drums
* Juno Lewis — vocals, percussion, conch shell, hand drums (track 1 only)
Transition
The album was recorded on June 10 and June 16, 1965, and released 1970. Befittingly for its title, Transition was a bridge between classic quartet recordings like A Love Supreme and the more experimental works of Coltrane's last years.
Tracklisting:
1. Transition
*2. Dear Lord (moved to the CD issue of Dear Old Stockholm with the rest of the sessions from that LP)
3. Suite: Prayer and Meditation: Day, Peace and After, Prayer and Meditation: Evening, Affirmation, Prayer and Meditation: 4 A.M.
Personnel:
* John Coltrane: saxophone
* McCoy Tyner: keyboards
* Jimmy Garrison: double bass
* Elvin Jones: drums
1965 Impulse
2001 Азбука Звука
Сканы приложены.
Треклист:
 
John Coltrane [1965] Kulu Se Mama & Transition (2 original LP's on 1 CD)
01. Kulu Se Mama - Kulu Se Mama [18:51]
02. Kulu Se Mama - Vigil [9:52]
03. Kulu Se Mama - Welcome [5:35]
04. Transition - Transition [15:31]
05. Transition - Suite [21:22]
a. Prayer and Meditation: Day
b. Peace and After
c. Prayer and Meditation: Evening
d. Affirmation
e. Prayer and Meditation: 4 A.M.
 
Лог создания рипа (EAC Log)
Exact Audio Copy V0.99 prebeta 3 from 28. July 2007
Отчёт EAC об извлечении, выполненном 18. ноября 2008, 13:30
John Coltrane / Kulu Se Mama & Transition
Дисковод: SONY CD-RW CRX320EE Adapter: 4 ID: 0
Режим чтения : Достоверность
Использование точного потока : Да
Отключение кэша аудио : Да
Использование указателей C2 : Нет
Коррекция смещения при чтении : 6
Способность читать области Lead-in и Lead-out : Нет
Заполнение пропущенных сэмплов тишиной : Да
Удаление блоков с тишиной в начале и конце : Нет
При вычислениях CRC использовались нулевые сэмплы : Да
Интерфейс : Встроенный Win32-интерфейс для Win NT/2000
Выходной формат : Внутренние WAV-операции
Формат сэмплов : 44.100 Гц; 16 бит; стерео
TOC извлечённого CD
Трек | Старт | Длительность | Начальный сектор | Конечный сектор
---------------------------------------------------------------------
1 | 0:00.00 | 18:50.72 | 0 | 84821
2 | 18:50.72 | 9:51.58 | 84822 | 129204
3 | 28:42.55 | 5:35.22 | 129205 | 154351
4 | 34:18.02 | 15:31.15 | 154352 | 224191
5 | 49:49.17 | 21:21.65 | 224192 | 320331
Характеристики диапазона извлечения и сообщения об ошибках
Выбранный диапазон
Имя файла D:\INN Music\[1965] John Coltrane - Kulu Se Mama & Transition (2 original LP's on 1 CD)\John Coltrane - Kulu Se Mama & Transition.wav
Пиковый уровень 100.0 %
Качество диапазона 100.0 %
CRC теста B3828AE6
CRC копии B3828AE6
Копирование... OK
Ошибок не произошло
Конец отчёта
 
Содержание индексной карты (.CUE)
REM GENRE Jazz
REM DISCID 3410AF05
REM COMMENT "ExactAudioCopy v0.99pb3"
PERFORMER "John Coltrane"
TITLE "Kulu Se Mama & Transition"
FILE "John Coltrane - Kulu Se Mama & Transition.ape" WAVE
TRACK 01 AUDIO
TITLE "Kulu Se Mama - Kulu Se Mama"
PERFORMER "John Coltrane"
INDEX 01 00:00:00
TRACK 02 AUDIO
TITLE "Kulu Se Mama - Vigil"
PERFORMER "John Coltrane"
INDEX 01 18:50:72
TRACK 03 AUDIO
TITLE "Kulu Se Mama - Welcome"
PERFORMER "John Coltrane"
INDEX 01 28:42:55
TRACK 04 AUDIO
TITLE "Transition - Transition"
PERFORMER "John Coltrane"
INDEX 01 34:18:02
TRACK 05 AUDIO
TITLE "Transition - Suite"
PERFORMER "John Coltrane"
INDEX 01 49:49:17
 
Лог проверки качества (Audiochecker)
AUDIOCHECKER v2.0 beta (build 457) - by Dester - opdester@freemail.hu
~~~~~~~~~~~~~~~~~~~~~~~~~~~~~~~~~~
Started at: вторник, 18. 11. 2008. - 14:00.18
1 file found
1 -===- D:\INN Music\[1965] John Coltrane - Kulu Se Mama & Transition (2 original LP's on 1 CD)\John Coltrane - Kulu Se Mama & Transition.wav
Conclusion: this track is CDDA with probability 100%
Finished at: вторник, 18. 11. 2008. - 14:21.38 (operation time: 0:21.20)
По всем вопросам пишите личное сообщение пользователю M0p94ok.
07:04
158
Нет комментариев. Ваш будет первым!