Вы используете незарегистрированную версию компонента "Вкладки"!

Поиск

(Avant-Garde, Free Jazz) [CD] Signal Problems - Signal Problems - 2014, FLAC (tracks+.cue), lossless

(Avant-Garde, Free Jazz) [CD] Signal Problems - Signal Problems - 2014, FLAC (tracks+.cue), lossless
Треклист:
SIGNAL
PROBLEMS
Жанр: Avant-Garde, Free Jazz
Год издания: 2014
Издатель (лейбл): pfMENTUM
Номер по каталогу: PFMCD080
Страна исполнителя (группы): USA
Аудиокодек: FLAC (*.flac)
Тип рипа: tracks+.cue
Битрейт аудио: lossless
Продолжительность: 49:38
Источник (релизер): спасибо Nostalgiastic
Наличие сканов: сетевые
Треклист:
1. Icebreaker
2. Pogo Stick
3. Spectacled Bear
4. Do You See What Happens?
5. Not Yet, Gorilla
6. Made for TV pt. 2
7. Chloroform
8. We're All In It Together
9. Slippy Sloop
10. When You Fell From Heaven
 
Лог создания рипа
Exact Audio Copy V1.0 beta 3 from 29. August 2011
EAC extraction logfile from 4. August 2014, 23:24
Signal Problems / Signal Problems
Used drive : hp BD ROM BC-5550H Adapter: 1 ID: 0
Read mode : Secure
Utilize accurate stream : Yes
Defeat audio cache : Yes
Make use of C2 pointers : No
Read offset correction : 48
Overread into Lead-In and Lead-Out : No
Fill up missing offset samples with silence : Yes
Delete leading and trailing silent blocks : No
Null samples used in CRC calculations : Yes
Used interface : Native Win32 interface for Win NT & 2000
Gap handling : Appended to previous track
Used output format : User Defined Encoder
Selected bitrate : 1024 kBit/s
Quality : High
Add ID3 tag : No
Command line compressor : C:\Program Files (x86)\Exact Audio Copy\FLAC\FLAC.EXE
Additional command line options : -8 -V -T "ARTIST=%artist%" -T "TITLE=%title%" -T "ALBUM=%albumtitle%" -T "DATE=%year%" -T "TRACKNUMBER=%tracknr%" -T "GENRE=%genre%" -T "COMMENT=%comment%" -T "BAND=%albuminterpret%" -T "ALBUMARTIST=%albuminterpret%" -T "COMPOSER=%composer%" %haslyrics%--tag-from-file=LYRICS="%lyricsfile%"%haslyrics% -T "DISCNUMBER=%cdnumber%" -T "TOTALDISCS=%totalcds%" -T "TOTALTRACKS=%numtracks%" %hascover%--picture="%coverfile%"%hascover% %source% -o %dest%
TOC of the extracted CD
Track | Start | Length | Start sector | End sector
---------------------------------------------------------
1 | 0:00.00 | 2:23.49 | 0 | 10773
2 | 2:23.49 | 5:21.71 | 10774 | 34919
3 | 7:45.45 | 6:22.63 | 34920 | 63632
4 | 14:08.33 | 1:45.70 | 63633 | 71577
5 | 15:54.28 | 6:39.59 | 71578 | 101561
6 | 22:34.12 | 3:08.48 | 101562 | 115709
7 | 25:42.60 | 2:17.11 | 115710 | 125995
8 | 27:59.71 | 4:30.14 | 125996 | 146259
9 | 32:30.10 | 9:32.23 | 146260 | 189182
10 | 42:02.33 | 7:53.59 | 189183 | 224716
Track 1
Filename C:\EAC Music and Logs\Signal Problems - Signal Problems (2014) - FLAC\01 - Icebreaker.wav
Pre-gap length 0:00:02.00
Peak level 97.0 %
Extraction speed 9.4 X
Track quality 100.0 %
Test CRC 6C4C78B0
Copy CRC 6C4C78B0
Track not present in AccurateRip database
Copy OK
Track 2
Filename C:\EAC Music and Logs\Signal Problems - Signal Problems (2014) - FLAC\02 - Pogo Stick.wav
Peak level 99.0 %
Extraction speed 11.0 X
Track quality 100.0 %
Test CRC 6ADF724B
Copy CRC 6ADF724B
Track not present in AccurateRip database
Copy OK
Track 3
Filename C:\EAC Music and Logs\Signal Problems - Signal Problems (2014) - FLAC\03 - Spectacled Bear.wav
Pre-gap length 0:00:02.00
Peak level 97.7 %
Extraction speed 12.6 X
Track quality 100.0 %
Test CRC 7D2B431F
Copy CRC 7D2B431F
Track not present in AccurateRip database
Copy OK
Track 4
Filename C:\EAC Music and Logs\Signal Problems - Signal Problems (2014) - FLAC\04 - Do You See What Happens.wav
Pre-gap length 0:00:02.00
Peak level 97.3 %
Extraction speed 10.3 X
Track quality 99.8 %
Test CRC 386EA183
Copy CRC 386EA183
Track not present in AccurateRip database
Copy OK
Track 5
Filename C:\EAC Music and Logs\Signal Problems - Signal Problems (2014) - FLAC\05 - Not Yet, Gorilla.wav
Pre-gap length 0:00:02.00
Peak level 98.1 %
Extraction speed 14.3 X
Track quality 100.0 %
Test CRC 1F589E2E
Copy CRC 1F589E2E
Track not present in AccurateRip database
Copy OK
Track 6
Filename C:\EAC Music and Logs\Signal Problems - Signal Problems (2014) - FLAC\06 - Made for TV pt. 2.wav
Pre-gap length 0:00:02.00
Peak level 100.0 %
Extraction speed 14.5 X
Track quality 100.0 %
Test CRC F0343FF1
Copy CRC F0343FF1
Track not present in AccurateRip database
Copy OK
Track 7
Filename C:\EAC Music and Logs\Signal Problems - Signal Problems (2014) - FLAC\07 - Chloroform.wav
Pre-gap length 0:00:02.00
Peak level 75.5 %
Extraction speed 14.4 X
Track quality 100.0 %
Test CRC ADC1B033
Copy CRC ADC1B033
Track not present in AccurateRip database
Copy OK
Track 8
Filename C:\EAC Music and Logs\Signal Problems - Signal Problems (2014) - FLAC\08 - We're All In It Together.wav
Pre-gap length 0:00:02.00
Peak level 97.4 %
Extraction speed 15.9 X
Track quality 100.0 %
Test CRC E04E7E71
Copy CRC E04E7E71
Track not present in AccurateRip database
Copy OK
Track 9
Filename C:\EAC Music and Logs\Signal Problems - Signal Problems (2014) - FLAC\09 - Slippy Sloop.wav
Pre-gap length 0:00:02.00
Peak level 100.0 %
Extraction speed 17.4 X
Track quality 100.0 %
Test CRC 1712D312
Copy CRC 1712D312
Track not present in AccurateRip database
Copy OK
Track 10
Filename C:\EAC Music and Logs\Signal Problems - Signal Problems (2014) - FLAC\10 - When You Fell From Heaven.wav
Pre-gap length 0:00:04.00
Peak level 97.2 %
Extraction speed 18.1 X
Track quality 99.9 %
Test CRC E7089D98
Copy CRC E7089D98
Track not present in AccurateRip database
Copy OK
None of the tracks are present in the AccurateRip database
No errors occurred
End of status report
==== Log checksum 01C4E21E10E177CACBE5C9F5C62F1CF97021E4913C0901EB6187511A9498C42E ====
 
Содержание индексной карты (.CUE)
REM GENRE Jazz
REM DATE 2014
REM DISCID 890BB40A
REM COMMENT "ExactAudioCopy v1.0b3"
PERFORMER "Signal Problems"
TITLE "Signal Problems"
FILE "01 - Icebreaker.wav" WAVE
TRACK 01 AUDIO
TITLE "Icebreaker"
PERFORMER "Signal Problems"
INDEX 01 00:00:00
FILE "02 - Pogo Stick.wav" WAVE
TRACK 02 AUDIO
TITLE "Pogo Stick"
PERFORMER "Signal Problems"
INDEX 01 00:00:00
TRACK 03 AUDIO
TITLE "Spectacled Bear"
PERFORMER "Signal Problems"
INDEX 00 05:19:71
FILE "03 - Spectacled Bear.wav" WAVE
INDEX 01 00:00:00
TRACK 04 AUDIO
TITLE "Do You See What Happens?"
PERFORMER "Signal Problems"
INDEX 00 06:20:63
FILE "04 - Do You See What Happens.wav" WAVE
INDEX 01 00:00:00
TRACK 05 AUDIO
TITLE "Not Yet, Gorilla"
PERFORMER "Signal Problems"
INDEX 00 01:43:70
FILE "05 - Not Yet, Gorilla.wav" WAVE
INDEX 01 00:00:00
TRACK 06 AUDIO
TITLE "Made for TV pt. 2"
PERFORMER "Signal Problems"
INDEX 00 06:37:59
FILE "06 - Made for TV pt. 2.wav" WAVE
INDEX 01 00:00:00
TRACK 07 AUDIO
TITLE "Chloroform"
PERFORMER "Signal Problems"
INDEX 00 03:06:48
FILE "07 - Chloroform.wav" WAVE
INDEX 01 00:00:00
TRACK 08 AUDIO
TITLE "We're All In It Together"
PERFORMER "Signal Problems"
INDEX 00 02:15:11
FILE "08 - We're All In It Together.wav" WAVE
INDEX 01 00:00:00
TRACK 09 AUDIO
TITLE "Slippy Sloop"
PERFORMER "Signal Problems"
INDEX 00 04:28:14
FILE "09 - Slippy Sloop.wav" WAVE
INDEX 01 00:00:00
TRACK 10 AUDIO
TITLE "When You Fell From Heaven"
PERFORMER "Signal Problems"
INDEX 00 09:28:23
FILE "10 - When You Fell From Heaven.wav" WAVE
INDEX 01 00:00:00
 
Состав

Danny Gouker - trumpet, compositions
Eric Trudel - tenor saxophone
Adam Hopkins - bass
Nathan Ellman-Bell - drums
По всем вопросам пишите личное сообщение пользователю M0p94ok.
07:05
142
Нет комментариев. Ваш будет первым!